VERSION	0.00.00	1.03.00
FES_MODE	0
BPM_DEF	188.000	188.000	188.000	188.000
MET_DEF	4	4
RESOLUTION	384
CLK_DEF	384
COMPATIBLE_CODE	MA2

BPM	0	0	188.000
MET	0	0	4	4
MET	17	0	4	2
MET	17	192	4	4
MET	99	192	7	4
MET	101	72	15	8
MET	101	264	7	4

STR	1	0	7
SCL	1	0	7	96	384	2
STR	3	0	0
SCR	3	0	0	96	384	5
STR	5	0	7
SCL	5	0	7	96	384	2
THO	6	288	0	480	C	0	L1
HLD	9	0	1	96
TAP	9	96	0
TAP	9	192	0
HLD	10	0	6	96
TAP	10	96	7
TAP	10	192	7
HLD	11	0	1	96
TAP	11	96	0
TAP	11	192	0
TAP	12	0	7
TAP	12	96	7
TAP	12	192	0
TAP	12	192	6
HLD	13	0	5	96
TAP	13	96	4
TAP	13	192	4
TAP	14	0	2
TAP	14	96	2
TAP	14	192	3
TAP	14	288	3
TAP	15	0	4
TAP	15	96	4
TAP	15	192	3
TAP	15	192	5
STR	16	0	6
SUL	16	0	6	96	336	4
STR	17	192	3
SUL	17	192	3	96	384	0
STR	19	192	0
SXL	19	192	0	96	432	3
STR	19	192	7
SXR	19	192	7	96	432	4
TTP	21	192	4	E	0	L1
TTP	22	192	3	E	0	L1
TTP	23	192	2	E	0	L1
TTP	24	192	1	E	0	L1
TTP	25	192	0	E	0	L1
TTP	26	192	7	E	0	L1
THO	27	192	0	384	C	1	L1
HLD	29	192	6	192
HLD	30	0	7	192
HLD	30	192	0	192
TAP	31	0	1
HLD	31	192	2	192
HLD	32	0	3	192
HLD	32	192	4	192
TAP	33	0	5
TAP	33	192	6
TAP	33	288	6
TAP	34	0	6
TAP	34	0	7
TAP	34	192	1
TAP	34	288	1
TAP	35	0	0
TAP	35	0	1
TAP	35	192	6
TAP	35	288	6
TAP	36	0	7
TAP	36	96	7
TAP	36	192	0
TAP	36	288	0
TAP	37	0	1
TAP	37	96	1
STR	37	192	2
SCL	37	192	2	96	384	5
TAP	37	192	3
TAP	39	192	6
TAP	39	288	6
TAP	40	0	6
TAP	40	0	7
TAP	40	96	6
TAP	40	96	7
TAP	40	192	5
TAP	40	288	5
TAP	41	0	4
TAP	41	0	5
TAP	41	96	4
TAP	41	96	5
TAP	41	192	2
TAP	41	288	2
TAP	42	0	2
TAP	42	0	3
TAP	42	96	2
TAP	42	96	3
TAP	42	192	1
TAP	42	288	1
TAP	43	0	0
TAP	43	96	0
TAP	43	96	7
TAP	43	192	6
TAP	43	288	6
TAP	44	0	5
TAP	44	96	5
STR	44	192	4
SCR	44	192	4	96	144	7
TAP	45	192	0
TAP	45	288	0
TAP	46	0	1
TAP	46	96	2
STR	46	192	3
SV_	46	192	3	96	144	4
TAP	47	192	5
TAP	47	288	5
TAP	48	0	4
TAP	48	0	5
TAP	48	96	4
TAP	48	96	5
TAP	48	192	6
TAP	48	288	6
TAP	49	0	6
TAP	49	0	7
TAP	49	96	6
TAP	49	96	7
TAP	49	192	1
TAP	49	288	1
TAP	50	0	0
TAP	50	0	1
TAP	50	96	0
TAP	50	96	1
TAP	50	192	2
TAP	50	288	2
TAP	51	0	3
TAP	51	96	3
TAP	51	96	4
TAP	51	192	5
TAP	51	288	5
TAP	52	0	6
TAP	52	96	6
STR	52	192	7
SCL	52	192	7	96	144	4
TAP	53	192	3
TAP	53	288	3
TAP	54	0	2
TAP	54	96	1
STR	54	192	0
SV_	54	192	0	96	144	7
TTP	55	192	6	E	0	L1
TTP	55	288	5	B	0	L1
TTP	56	0	4	B	0	L1
TTP	56	192	2	E	0	L1
TTP	56	288	2	B	0	L1
TTP	57	0	3	B	0	L1
TTP	57	192	6	E	0	L1
TTP	57	288	5	B	0	L1
TTP	58	0	4	B	0	L1
TTP	58	96	3	B	0	L1
TTP	58	192	2	B	0	L1
TTP	58	288	2	E	0	L1
TTP	59	0	1	B	0	L1
TTP	59	192	6	E	0	L1
TTP	59	288	6	B	0	L1
TTP	60	0	7	B	0	L1
TTP	60	192	2	E	0	L1
TTP	60	288	1	B	0	L1
TTP	61	0	0	B	0	L1
TTP	61	192	6	E	0	L1
TTP	61	288	6	B	0	L1
TTP	62	0	7	B	0	L1
TTP	62	96	0	B	0	L1
TTP	62	192	1	B	0	L1
TTP	62	288	2	E	0	L1
TTP	63	0	2	B	0	L1
TAP	63	192	5
TAP	63	288	5
TAP	64	0	4
TAP	64	0	5
TAP	64	192	2
TAP	64	288	2
TAP	65	0	2
TAP	65	0	3
TAP	65	192	5
TAP	65	288	5
TAP	66	0	4
TAP	66	96	4
TAP	66	192	3
TAP	66	288	3
TAP	67	0	2
TAP	67	0	4
TAP	67	192	1
TAP	67	288	1
TAP	68	0	0
TAP	68	0	1
TAP	68	192	6
TAP	68	288	6
TAP	69	0	6
TAP	69	0	7
TAP	69	192	1
TAP	69	288	1
TAP	70	0	0
TAP	70	96	0
TAP	70	192	7
TAP	70	288	7
TAP	71	0	6
STR	71	96	6
SXL	71	96	6	96	576	3
STR	73	192	2
SXR	73	192	2	96	480	7
STR	75	192	6
SXR	75	192	6	96	480	3
STR	77	192	2
SXR	77	192	2	96	480	5
HLD	79	192	6	192
TAP	80	0	7
HLD	80	192	1	192
TAP	81	0	0
THO	81	192	0	384	C	1	L1
TAP	83	192	1
TAP	83	288	0
TAP	83	288	1
TAP	84	0	1
TAP	84	96	0
TAP	84	96	1
TAP	84	192	2
TAP	84	288	2
TAP	84	288	3
TAP	85	0	2
TAP	85	96	2
TAP	85	96	3
TAP	85	192	5
TAP	85	288	4
TAP	85	288	5
TAP	86	0	5
TAP	86	96	4
TAP	86	96	5
TAP	86	192	6
TAP	86	288	6
TAP	87	0	7
TAP	87	96	0
TAP	87	96	7
TAP	87	192	1
TAP	87	288	1
TAP	88	0	2
TAP	88	96	2
STR	88	192	3
SCL	88	192	3	96	144	0
TAP	89	192	7
TAP	89	288	7
TAP	90	0	6
TAP	90	96	5
STR	90	192	4
SV_	90	192	4	96	144	3
TAP	91	192	2
TAP	91	288	2
TAP	91	288	3
TAP	92	0	2
TAP	92	96	2
TAP	92	96	3
TAP	92	192	1
TAP	92	288	0
TAP	92	288	1
TAP	93	0	1
TAP	93	96	0
TAP	93	96	1
TAP	93	192	6
TAP	93	288	6
TAP	93	288	7
TAP	94	0	6
TAP	94	96	6
TAP	94	96	7
TAP	94	192	5
TAP	94	288	5
TAP	95	0	4
TAP	95	96	3
TAP	95	96	4
TAP	95	192	2
TAP	95	288	2
TAP	96	0	1
TAP	96	96	1
STR	96	192	0
SCR	96	192	0	96	144	3
TAP	97	192	4
TAP	97	288	4
TAP	98	0	5
TAP	98	96	6
TAP	98	192	7
TAP	98	288	0
TAP	99	0	1
TAP	99	96	2
BST	99	192	3
SCR	99	192	3	96	336	0
BRK	99	192	4
XTP	101	0	1
XST	101	96	1
SLR	101	96	1	96	288	5
XTP	102	288	6
XST	103	0	6
SLL	103	0	6	96	288	2
TAP	104	192	1
TAP	104	192	3
TAP	104	288	1
TAP	104	288	3
TAP	105	0	2
TAP	105	48	2
TAP	105	96	2
TAP	105	192	3
TAP	105	192	4
TAP	105	288	5
TAP	105	336	5
TAP	106	0	5
XST	106	96	3
SXR	106	96	3	96	432	0
XST	106	96	4
SXL	106	96	4	96	432	7
XTP	108	48	1
XST	108	144	1
SSL	108	144	1	96	336	5
XTP	109	336	6
XST	110	48	6
SXL	110	48	6	96	384	3
TAP	111	336	2
TAP	112	48	3
TAP	112	144	4
TAP	112	240	3
TAP	112	240	5
TAP	112	336	4
TAP	113	0	4
TAP	113	48	3
BRK	113	96	3

T_REC_TAP	220
T_REC_BRK	2
T_REC_XTP	4
T_REC_HLD	12
T_REC_XHO	0
T_REC_STR	19
T_REC_BST	1
T_REC_XST	6
T_REC_TTP	32
T_REC_THO	3
T_REC_SLD	26
T_REC_ALL	325
T_NUM_TAP	281
T_NUM_BRK	3
T_NUM_HLD	15
T_NUM_SLD	26
T_NUM_ALL	325
T_JUDGE_TAP	284
T_JUDGE_HLD	66
T_JUDGE_SLD	26
T_JUDGE_ALL	376
TTM_EACHPAIRS	45
TTM_SCR_TAP	140500
TTM_SCR_BRK	7800
TTM_SCR_HLD	15000
TTM_SCR_SLD	39000
TTM_SCR_ALL	202300
TTM_SCR_S	195950
TTM_SCR_SS	202000
TTM_RAT_ACV	10014

