VERSION	0.00.00	1.03.00
FES_MODE	0
BPM_DEF	188.000	188.000	188.000	188.000
MET_DEF	4	4
RESOLUTION	384
CLK_DEF	384
COMPATIBLE_CODE	MA2

BPM	0	0	188.000
MET	0	0	4	4
MET	17	0	4	2
MET	17	192	4	4
MET	99	192	4	7
MET	104	288	8	15
MET	106	240	4	7

TAP	9	0	0
TAP	9	192	0
TAP	10	0	0
TAP	11	0	0
TAP	11	0	7
TAP	12	0	0
TAP	12	0	7
TAP	13	0	7
TAP	13	192	7
TAP	14	0	7
XTP	15	0	0
XTP	15	0	7
TAP	16	0	0
TAP	16	192	0
TAP	17	0	1
TAP	17	192	2
TAP	18	0	2
TAP	18	192	3
TAP	19	0	4
TAP	19	192	4
TAP	20	0	5
TAP	20	192	6
TAP	21	0	7
BRK	21	192	0
STR	23	192	0
SI_	23	192	0	96	288	4
STR	25	192	6
SI_	25	192	6	96	288	2
STR	27	192	2
SI_	27	192	2	96	288	6
TTP	29	192	7	B	0	L1
TTP	30	192	6	B	0	L1
TTP	31	192	5	B	0	L1
TTP	32	192	4	B	0	L1
TTP	33	192	3	B	0	L1
TTP	34	192	2	B	0	L1
TTP	35	192	1	B	0	L1
TTP	36	192	0	B	0	L1
TTP	37	192	0	C	0	L1
XTP	39	192	7
TAP	40	0	7
TAP	40	192	6
TAP	41	0	6
TAP	41	192	5
TAP	42	0	5
TAP	42	192	4
TAP	42	288	4
TAP	43	0	3
TAP	43	0	4
TAP	43	192	3
TAP	44	0	3
TAP	44	192	2
TAP	45	0	2
TAP	45	192	1
TAP	46	0	1
TAP	46	192	0
TAP	46	288	0
TAP	47	0	0
TAP	47	0	7
TAP	47	192	0
TAP	48	0	0
TAP	48	192	1
TAP	49	0	1
TAP	49	192	2
TAP	50	0	2
TAP	50	192	3
TAP	50	288	3
TAP	51	0	3
TAP	51	0	4
TAP	51	192	4
TAP	52	0	4
TAP	52	192	5
TAP	53	0	5
TAP	53	192	6
TAP	54	0	6
TAP	54	192	7
TAP	54	288	7
TAP	55	0	0
TAP	55	0	7
TAP	55	192	7
TAP	56	0	6
TAP	56	192	5
TAP	57	0	4
TAP	57	0	5
TAP	57	192	3
TAP	58	0	2
TAP	58	192	1
TAP	59	0	0
TAP	59	0	1
TAP	59	192	7
TAP	60	0	7
TAP	60	192	6
TAP	60	192	7
TAP	61	0	6
TAP	61	0	7
TAP	61	192	0
TAP	62	0	0
TAP	62	192	0
TAP	62	192	7
TAP	63	0	0
TAP	63	0	7
TAP	63	192	0
TAP	63	288	0
TAP	64	0	0
TAP	64	192	1
TAP	65	0	1
TAP	65	192	2
TAP	65	288	2
TAP	66	0	2
TAP	66	192	3
TAP	66	192	4
TAP	67	0	3
TAP	67	0	4
TAP	67	192	5
TAP	67	288	5
TAP	68	0	5
TAP	68	192	6
TAP	69	0	6
TAP	69	192	7
TAP	69	288	7
TAP	70	0	7
TAP	70	192	0
TAP	70	192	7
TAP	71	0	0
TAP	71	0	7
XTP	71	192	1
XTP	71	192	6
TTP	73	192	0	B	0	L1
TTP	73	192	7	B	0	L1
TTP	75	192	1	B	0	L1
TTP	75	192	6	B	0	L1
TTP	77	192	2	B	0	L1
TTP	77	192	5	B	0	L1
TTP	79	192	3	B	0	L1
TTP	79	192	4	B	0	L1
THO	81	192	0	384	C	0	L1
XTP	83	192	7
TAP	83	288	7
TAP	84	0	7
TAP	84	192	6
TAP	84	288	6
TAP	85	0	6
TAP	85	192	5
TAP	85	288	5
TAP	86	0	5
TAP	86	192	3
TAP	86	192	4
TAP	87	0	3
TAP	87	0	4
TAP	87	192	3
TAP	87	288	3
TAP	88	0	3
TAP	88	192	2
TAP	88	288	2
TAP	89	0	2
TAP	89	192	1
TAP	89	288	1
TAP	90	0	1
TAP	90	192	0
TAP	90	192	7
TAP	91	0	0
TAP	91	0	7
TAP	91	192	0
TAP	91	288	0
TAP	92	0	0
TAP	92	192	1
TAP	92	288	1
TAP	93	0	0
TAP	93	0	1
TAP	93	192	2
TAP	93	288	2
TAP	94	0	2
TAP	94	192	3
TAP	94	192	4
TAP	95	0	3
TAP	95	0	4
TAP	95	192	4
TAP	95	288	4
TAP	96	0	4
TAP	96	192	5
TAP	96	288	5
TAP	97	0	4
TAP	97	0	5
TAP	97	192	6
TAP	97	288	6
TAP	98	0	6
TAP	98	192	7
TAP	98	288	7
TAP	99	0	0
TAP	99	0	7
STR	99	192	0
SI_	99	192	0	96	288	3
STR	101	96	4
SI_	101	96	4	96	288	7
STR	103	0	0
SI_	103	0	0	96	288	4
STR	104	288	5
SI_	104	288	5	96	288	1
XST	106	240	0
SI_	106	240	0	96	288	3
XST	106	240	7
SI_	106	240	7	96	288	4
XHO	108	144	3	288
XHO	108	144	4	288
XST	110	48	3
SI_	110	48	3	96	288	0
XST	110	48	4
SI_	110	48	4	96	288	7
XHO	111	336	0	528
XHO	111	336	7	528

T_REC_TAP	159
T_REC_BRK	1
T_REC_XTP	6
T_REC_HLD	0
T_REC_XHO	4
T_REC_STR	7
T_REC_BST	0
T_REC_XST	4
T_REC_TTP	17
T_REC_THO	1
T_REC_SLD	11
T_REC_ALL	210
T_NUM_TAP	193
T_NUM_BRK	1
T_NUM_HLD	5
T_NUM_SLD	11
T_NUM_ALL	210
T_JUDGE_TAP	194
T_JUDGE_HLD	42
T_JUDGE_SLD	11
T_JUDGE_ALL	247
TTM_EACHPAIRS	31
TTM_SCR_TAP	96500
TTM_SCR_BRK	2600
TTM_SCR_HLD	5000
TTM_SCR_SLD	16500
TTM_SCR_ALL	120600
TTM_SCR_S	116900
TTM_SCR_SS	120500
TTM_RAT_ACV	10008

