VERSION	0.00.00	1.03.00
FES_MODE	0
BPM_DEF	182.000	182.000	182.000	182.000
MET_DEF	4	4
RESOLUTION	384
CLK_DEF	384
COMPATIBLE_CODE	MA2

BPM	0	0	182.000
MET	0	0	4	4

BRK	1	240	0
THO	1	240	0	96	C	1	M1
TAP	1	336	2
TAP	1	360	3
HLD	2	0	1	96
HLD	2	0	4	96
TAP	2	144	2
STR	2	144	3
SCL	2	144	3	96	288	4
HLD	2	288	0	288
TAP	3	192	3
TAP	3	240	2
TAP	3	288	0
TAP	3	288	1
TAP	3	336	7
HLD	4	0	3	96
HLD	4	0	6	96
STR	4	144	4
SCR	4	144	4	96	288	3
TAP	4	144	5
HLD	4	288	7	336
TTP	5	240	0	C	1	M1
TTP	5	240	3	B	0	M1
TTP	5	240	4	B	0	M1
TAP	6	0	0
TAP	6	24	0
TAP	6	48	0
TAP	6	72	0
TAP	6	96	0
TAP	6	120	0
TAP	6	144	0
STR	6	144	7
SCL	6	144	7	96	288	0
HLD	6	288	3	288
TAP	7	192	7
TAP	7	240	6
TAP	7	288	4
TAP	7	288	5
TAP	7	336	3
HLD	8	0	1	96
HLD	8	0	2	96
STR	8	144	5
SXR	8	144	5	96	336	2
TAP	8	144	6
HLD	8	288	0	336
THO	9	240	0	144	C	1	M1
TTP	10	0	2	B	0	M1
TTP	10	0	2	E	0	M1
TTP	10	0	6	B	0	M1
TTP	10	0	6	E	0	M1
TAP	11	0	3
TAP	11	0	4
TAP	11	24	2
TAP	11	32	3
TAP	11	40	4
TAP	11	48	5
TAP	11	120	2
TAP	11	120	6
STR	11	192	1
SI_	11	192	1	96	48	4
STR	11	192	5
SI_	11	192	5	96	48	0
TAP	11	288	1
TAP	11	288	5
TAP	12	0	2
TAP	12	0	3
TAP	12	96	0
TAP	12	96	7
TAP	12	192	4
TAP	12	192	6
TAP	12	240	5
TAP	12	288	4
TAP	12	336	1
TAP	12	336	3
TAP	13	48	0
STR	13	48	7
SI_	13	48	7	96	48	3
TAP	13	144	3
TAP	13	144	7
STR	13	192	1
SI_	13	192	1	96	48	7
STR	13	240	5
SI_	13	240	5	96	48	3
STR	13	288	1
SI_	13	288	1	96	48	5
TAP	13	336	5
TAP	14	0	1
TAP	14	96	3
TAP	14	96	7
TAP	14	192	1
TAP	14	192	3
TAP	14	240	2
TAP	14	288	3
TAP	14	336	4
TAP	14	336	6
TAP	15	48	0
TAP	15	48	7
TAP	15	144	1
TAP	15	144	5
STR	15	192	2
SI_	15	192	2	96	48	7
STR	15	192	6
SI_	15	192	6	96	48	3
TAP	15	288	2
TAP	15	288	6
STR	16	0	1
SCR	16	0	1	96	48	4
TAP	16	48	0
TAP	16	96	7
STR	16	144	6
SCR	16	144	6	96	48	1
TAP	16	192	5
TAP	16	240	4
TAP	16	288	3
TAP	16	336	2
TAP	16	336	4
STR	17	0	1
SI_	17	0	1	96	48	3
TAP	17	0	5
TAP	17	48	0
STR	17	96	7
SI_	17	96	7	96	48	3
TAP	17	144	0
TAP	17	192	2
TAP	17	240	1
TAP	17	288	0
TAP	17	288	4
TAP	17	336	5
STR	18	0	6
SCL	18	0	6	96	48	3
TAP	18	48	7
TAP	18	96	0
STR	18	144	1
SCL	18	144	1	96	48	6
TAP	18	192	2
TAP	18	240	3
TAP	18	288	4
TAP	18	336	5
TAP	19	0	3
TAP	19	0	6
TAP	19	16	5
TAP	19	32	4
STR	19	48	5
SLL	19	48	5	96	96	6
TAP	19	120	3
TAP	19	120	5
STR	19	192	0
SI_	19	192	0	96	48	4
TAP	19	288	0
TAP	19	288	7
TAP	19	336	6
TAP	20	0	3
TAP	20	0	5
TAP	20	96	0
TAP	20	96	7
TAP	20	192	1
TAP	20	192	3
TAP	20	240	2
TAP	20	288	3
TAP	20	336	4
TAP	20	336	6
STR	21	48	0
SI_	21	48	0	96	48	4
TAP	21	48	7
TAP	21	144	0
TAP	21	144	4
STR	21	192	6
SI_	21	192	6	96	48	4
STR	21	240	2
SI_	21	240	2	96	48	0
STR	21	288	6
SI_	21	288	6	96	48	2
TAP	21	336	2
TAP	22	0	6
TAP	22	96	0
TAP	22	96	4
TAP	22	192	4
TAP	22	192	6
TAP	22	240	5
TAP	22	288	4
TAP	22	336	1
TAP	22	336	3
TAP	23	48	0
TAP	23	48	7
TAP	23	144	2
TAP	23	144	6
STR	23	192	1
SI_	23	192	1	96	48	4
STR	23	192	5
SI_	23	192	5	96	48	0
TAP	23	288	1
TAP	23	288	5
STR	24	0	6
SCL	24	0	6	96	48	3
TAP	24	48	7
TAP	24	96	0
STR	24	144	1
SCL	24	144	1	96	48	6
TAP	24	192	2
TAP	24	240	3
TAP	24	288	4
TAP	24	336	3
TAP	24	336	5
TAP	25	0	2
STR	25	0	6
SI_	25	0	6	96	48	4
TAP	25	48	7
STR	25	96	0
SI_	25	96	0	96	48	4
TAP	25	144	7
TAP	25	192	5
TAP	25	240	6
TAP	25	288	3
TAP	25	288	7
TAP	25	336	2
STR	26	0	1
SCR	26	0	1	96	48	4
TAP	26	48	0
TAP	26	96	7
STR	26	144	6
SCR	26	144	6	96	48	1
TAP	26	192	5
TAP	26	240	4
TAP	26	288	3
TAP	26	336	2
TAP	27	0	1
TAP	27	0	4
TAP	27	16	2
TAP	27	32	3
STR	27	48	2
SLR	27	48	2	96	96	1
TAP	27	120	2
TAP	27	120	4
STR	27	192	7
SI_	27	192	7	96	48	3
TAP	27	216	6
TAP	27	240	5
XTP	27	288	0
TAP	27	288	7
HLD	28	0	2	96
HLD	28	0	4	96
STR	28	144	4
SI_	28	144	4	96	48	0
TAP	28	144	6
XTP	28	288	7
STR	28	336	7
SCL	28	336	7	96	48	4
TAP	29	0	7
XTP	29	48	7
STR	29	96	7
SCR	29	96	7	96	48	2
TAP	29	144	7
XTP	29	192	7
STR	29	240	7
SI_	29	240	7	96	48	3
TAP	29	288	7
XTP	29	336	7
HLD	30	0	0	96
TAP	30	96	1
TAP	30	144	2
STR	30	144	3
SI_	30	144	3	96	48	7
XTP	30	288	0
TAP	30	336	1
TAP	31	0	2
TAP	31	48	3
XTP	31	48	7
TAP	31	96	6
TAP	31	144	5
XST	31	192	0
SV_	31	192	0	96	48	3
SV_	31	192	0	96	48	5
TAP	31	192	4
TAP	31	240	2
TAP	31	240	6
TTP	31	300	0	C	1	M1
TAP	32	0	4
TAP	32	24	4
TAP	32	48	4
TAP	32	72	4
TAP	32	96	4
TAP	32	120	4
STR	32	144	3
SI_	32	144	3	96	48	7
TAP	32	144	4
XTP	32	288	0
STR	32	336	0
SCR	32	336	0	96	48	3
TAP	33	0	0
XTP	33	48	0
STR	33	96	0
SCL	33	96	0	96	48	5
TAP	33	144	0
XTP	33	192	0
STR	33	240	0
SI_	33	240	0	96	48	4
TAP	33	288	0
XTP	33	336	0
HLD	34	0	7	96
TAP	34	96	6
STR	34	144	4
SI_	34	144	4	96	48	0
TAP	34	144	5
XTP	34	288	7
TAP	34	336	6
TAP	35	0	5
XTP	35	48	3
TAP	35	48	4
TAP	35	96	2
STR	35	144	1
SCR	35	144	1	96	48	6
XTP	35	192	0
XTP	35	192	7
TTP	35	240	2	E	0	M1
TTP	35	252	3	E	0	M1
TTP	35	264	4	E	0	M1
TTP	35	276	5	E	0	M1
TTP	35	288	6	E	0	M1
STR	36	0	0
SUL	36	0	0	96	48	4
STR	36	0	7
SV_	36	0	7	96	48	5
TAP	36	192	3
TAP	36	224	3
TAP	36	256	4
HLD	36	288	2	64
TTP	36	352	0	C	0	M1
TAP	37	0	2
TAP	37	32	2
TAP	37	64	3
HLD	37	96	1	64
TTP	37	160	0	C	0	M1
TAP	37	192	1
TAP	37	224	1
TAP	37	256	3
STR	37	288	2
SCR	37	288	2	96	48	5
TTP	37	352	0	C	0	M1
STR	38	0	5
SCL	38	0	5	96	48	2
TAP	38	192	7
TAP	38	224	7
TAP	38	256	7
TAP	38	288	7
TAP	38	320	7
TAP	38	352	0
TAP	39	0	6
TAP	39	32	4
TAP	39	64	5
TAP	39	96	1
TAP	39	128	3
TAP	39	160	2
STR	39	192	1
SV_	39	192	1	96	48	3
STR	39	192	4
SI_	39	192	4	96	48	0
TAP	39	224	1
TAP	39	224	4
TAP	39	256	1
TAP	39	256	4
STR	40	0	4
SI_	40	0	4	96	48	0
STR	40	0	7
SV_	40	0	7	96	48	5
TAP	40	192	4
TAP	40	224	4
TAP	40	256	3
HLD	40	288	5	64
TTP	40	352	2	E	0	M1
TAP	41	0	5
TAP	41	32	5
TAP	41	64	4
HLD	41	96	6	64
TTP	41	160	1	B	0	M1
TTP	41	160	2	B	0	M1
TAP	41	192	6
TAP	41	224	6
TAP	41	256	4
HLD	41	288	7	64
TTP	41	352	1	B	0	M1
TTP	41	352	2	B	0	M1
TTP	41	352	2	E	0	M1
TAP	42	0	6
TAP	42	32	4
TAP	42	64	5
TAP	42	96	3
TAP	42	128	3
TAP	42	160	4
TAP	42	192	1
TAP	42	224	3
TAP	42	256	2
TAP	42	288	4
TAP	42	320	4
TAP	42	352	3
TAP	43	0	6
TAP	43	32	4
TAP	43	64	5
TAP	43	96	3
TAP	43	128	3
TAP	43	160	4
TAP	43	192	1
TAP	43	224	2
TAP	43	256	3
TAP	43	288	4
TAP	43	320	5
TAP	43	352	6
STR	44	0	0
SV_	44	0	0	96	48	2
STR	44	0	7
SUR	44	0	7	96	48	3
TAP	44	192	4
TAP	44	224	4
TAP	44	256	3
HLD	44	288	5	64
TTP	44	352	0	C	0	M1
TAP	45	0	5
TAP	45	32	5
TAP	45	64	4
HLD	45	96	6	64
TTP	45	160	0	C	0	M1
TAP	45	192	6
TAP	45	224	6
TAP	45	256	4
STR	45	288	5
SCL	45	288	5	96	48	2
TTP	45	352	0	C	0	M1
STR	46	0	2
SCR	46	0	2	96	48	5
TAP	46	192	0
TAP	46	224	0
TAP	46	256	0
TAP	46	288	0
TAP	46	320	0
TAP	46	352	7
TAP	47	0	1
TAP	47	32	3
TAP	47	64	2
TAP	47	96	6
TAP	47	128	4
TAP	47	160	5
STR	47	192	3
SI_	47	192	3	96	48	7
STR	47	192	6
SV_	47	192	6	96	48	4
TAP	47	224	3
TAP	47	224	6
TAP	47	256	3
TAP	47	256	6
STR	48	0	0
SV_	48	0	0	96	48	2
STR	48	0	3
SI_	48	0	3	96	48	7
TAP	48	192	3
TAP	48	224	3
TAP	48	256	4
HLD	48	288	2	64
TTP	48	352	6	E	0	M1
TAP	49	0	2
TAP	49	32	2
TAP	49	64	3
HLD	49	96	1	64
TTP	49	160	5	B	0	M1
TTP	49	160	6	B	0	M1
TAP	49	192	1
TAP	49	224	1
TAP	49	256	3
HLD	49	288	0	64
TTP	49	352	5	B	0	M1
TTP	49	352	6	B	0	M1
TTP	49	352	6	E	0	M1
HLD	50	0	1	0
HLD	50	32	3	0
HLD	50	64	2	0
HLD	50	96	4	0
HLD	50	128	4	0
HLD	50	160	3	0
HLD	50	192	6	0
HLD	50	224	4	0
HLD	50	256	5	0
HLD	50	288	3	0
HLD	50	320	3	0
HLD	50	352	4	0
HLD	51	0	1	0
HLD	51	32	3	0
HLD	51	64	2	0
HLD	51	96	4	0
HLD	51	128	4	0
HLD	51	160	3	0
HLD	51	192	6	0
HLD	51	224	5	0
HLD	51	256	4	0
HLD	51	288	3	0
HLD	51	320	2	0
HLD	51	352	1	0
TTP	52	0	0	C	1	M1
HLD	52	0	0	384
TAP	52	288	7
TAP	52	312	6
TAP	52	336	5
TAP	52	360	4
HLD	53	0	3	384
TAP	53	336	6
TAP	53	360	5
HLD	54	0	4	384
HLD	55	0	7	192
HLD	55	192	3	192
THO	56	0	0	1536	C	1	M1
TAP	57	0	2
TAP	57	192	1
HLD	58	0	0	96
HLD	58	192	7	96
TAP	59	0	6
TAP	59	96	7
TAP	59	192	0
STR	59	288	1
SV_	59	288	1	96	48	3
SV_	59	288	1	96	48	7
TAP	60	96	2
TAP	60	192	2
TAP	60	288	2
TAP	60	336	6
TAP	60	360	5
TAP	61	0	2
HLD	61	0	4	96
TAP	61	96	2
TAP	61	192	2
HLD	61	192	3	96
TAP	61	288	2
HLD	62	0	2	48
STR	62	0	5
SI_	62	0	5	96	48	3
HLD	62	96	2	48
HLD	62	192	2	48
STR	62	192	4
SI_	62	192	4	96	48	7
HLD	62	288	2	48
HLD	63	0	2	48
STR	63	0	6
SI_	63	0	6	96	48	3
HLD	63	96	2	48
HLD	63	192	2	48
STR	63	192	4
SI_	63	192	4	96	48	0
HLD	63	288	2	48
TAP	64	0	2
TAP	64	0	7
TAP	64	48	6
TAP	64	96	0
TAP	64	96	5
TAP	64	144	1
TAP	64	192	2
TAP	64	192	6
TAP	64	240	5
TAP	64	288	1
TAP	64	288	4
TAP	64	336	2
TAP	65	0	3
TAP	65	0	7
TAP	65	48	6
TAP	65	96	1
TAP	65	96	5
TAP	65	144	2
TAP	65	192	3
TAP	65	192	6
TAP	65	240	5
TAP	65	288	0
TAP	65	288	4
TAP	65	336	1
TAP	65	336	5
TAP	66	0	2
TAP	66	24	6
TAP	66	48	2
TAP	66	72	6
TAP	66	96	3
TAP	66	120	5
TAP	66	144	3
TAP	66	168	5
TAP	66	192	4
TAP	66	216	4
TAP	66	240	4
TAP	66	264	4
TAP	66	288	4
TAP	66	312	4
TAP	66	336	4
TAP	66	360	4
TAP	67	0	3
TAP	67	24	4
TAP	67	48	2
TAP	67	72	4
TAP	67	96	1
TAP	67	120	4
TAP	67	144	0
TAP	67	168	4
TAP	67	192	7
TAP	67	216	4
TAP	67	240	6
STR	67	264	4
SF_	67	264	4	96	48	0
TAP	67	288	5
TAP	67	312	4
TAP	67	336	3
TAP	67	360	4
TTP	67	376	4	B	0	M1
TTP	68	0	0	C	1	M1
TTP	68	8	0	B	0	M1
TAP	69	0	3
TAP	69	0	4
TAP	69	24	5
TAP	69	32	4
TAP	69	40	3
TAP	69	48	2
TAP	69	120	1
TAP	69	120	5
TAP	69	192	3
STR	69	192	7
SI_	69	192	7	96	48	3
TAP	69	288	3
TAP	69	336	2
STR	70	0	1
SI_	70	0	1	96	48	6
STR	70	0	5
SI_	70	0	5	96	48	2
TAP	70	96	1
TAP	70	96	5
TAP	70	192	0
TAP	70	192	7
TAP	70	240	1
TAP	70	288	2
TAP	70	288	6
HLD	70	336	5	240
STR	71	0	3
SI_	71	0	3	96	48	0
TAP	71	48	4
TAP	71	96	3
TAP	71	192	7
TAP	71	240	6
TAP	71	288	3
TAP	71	288	5
HLD	71	336	1	240
STR	72	0	3
SI_	72	0	3	96	48	0
TAP	72	96	3
TAP	72	192	7
TAP	72	240	2
TAP	72	288	4
TAP	72	288	5
HLD	72	336	7	96
STR	73	0	3
SI_	73	0	3	96	48	0
TAP	73	48	4
TAP	73	96	3
HLD	73	96	6	96
TAP	73	192	7
TAP	73	240	0
TAP	73	240	5
TAP	73	288	1
TAP	73	288	4
TAP	73	336	2
TAP	73	336	3
STR	74	0	1
SI_	74	0	1	96	48	3
TAP	74	0	4
TAP	74	48	0
STR	74	96	7
SI_	74	96	7	96	48	3
TAP	74	144	0
STR	74	192	1
SI_	74	192	1	96	48	5
TAP	74	240	0
STR	74	288	6
SI_	74	288	6	96	48	4
TAP	74	336	7
STR	75	0	0
SI_	75	0	0	96	48	4
TAP	75	48	7
STR	75	96	6
SI_	75	96	6	96	48	2
TAP	75	144	7
TAP	75	192	1
TAP	75	240	0
TAP	75	288	7
TAP	75	336	1
TAP	75	336	6
XTP	76	0	4
XTP	76	0	5
TAP	76	48	4
TAP	76	48	5
TTP	76	96	0	C	0	M1
XTP	76	144	2
XTP	76	144	3
TAP	76	192	2
TAP	76	192	3
TTP	76	240	0	E	0	M1
XTP	76	288	3
XTP	76	288	4
STR	76	336	1
SCR	76	336	1	96	24	3
STR	76	336	6
SCL	76	336	6	96	24	4
XTP	77	48	1
XTP	77	48	6
TAP	77	120	0
TAP	77	120	7
TAP	77	192	1
TAP	77	216	2
TAP	77	240	3
TAP	77	264	4
TAP	77	288	6
TAP	77	312	5
TAP	77	336	4
TAP	77	360	3
TAP	78	0	0
TAP	78	0	1
TAP	78	48	2
TAP	78	64	3
TAP	78	80	1
TAP	78	96	3
TAP	78	144	6
TAP	78	144	7
STR	78	192	5
SCL	78	192	5	96	96	7
TAP	78	208	4
TAP	78	224	6
TAP	78	240	4
TTP	78	288	0	C	1	M1
TAP	79	48	2
TAP	79	48	6
TAP	79	96	5
TAP	79	144	4
TAP	79	192	1
TAP	79	192	5
TAP	79	240	2
TAP	79	288	3
TAP	79	288	4
TAP	79	336	2
TAP	79	336	5
XTP	80	0	0
XTP	80	0	7
TAP	80	16	1
TAP	80	32	2
TAP	80	48	3
TAP	80	64	4
TAP	80	80	5
TAP	80	96	6
TAP	80	112	7
TAP	80	128	0
XTP	80	144	1
XTP	80	144	6
TAP	80	160	5
TAP	80	176	4
TAP	80	192	3
STR	80	208	2
SCR	80	208	2	96	80	0
TAP	80	224	1
TAP	80	240	0
TAP	80	256	7
TAP	80	272	6
XTP	80	288	2
XST	80	288	5
SXL	80	288	5	96	240	0
TTP	81	48	0	C	1	M1
BRK	81	48	4
TAP	81	240	1
TAP	81	288	2
TAP	81	336	3
STR	82	0	4
SI_	82	0	4	96	48	7
TAP	82	0	6
TAP	82	48	3
TAP	82	96	2
TAP	82	96	4
TAP	82	144	1
TAP	82	192	0
TAP	82	192	6
TAP	82	240	5
HLD	82	288	2	96
TAP	82	288	4
STR	83	0	4
SI_	83	0	4	96	48	7
HLD	83	48	6	144
TAP	83	96	4
STR	83	192	1
SI_	83	192	1	96	48	5
HLD	83	288	0	96
TAP	83	288	1
TAP	84	0	4
TAP	84	48	3
TAP	84	48	7
TAP	84	96	2
TAP	84	96	6
TAP	84	144	5
TAP	84	160	4
TAP	84	176	3
STR	84	192	2
SXL	84	192	2	96	240	5
TAP	84	208	1
TAP	84	224	0
TAP	84	240	7
TAP	84	256	6
TAP	84	272	5
TAP	85	192	0
TAP	85	192	4
TAP	85	224	0
TAP	85	224	4
TAP	85	256	0
TAP	85	256	4
TAP	85	288	2
TAP	85	288	6
TAP	85	320	2
TAP	85	320	6
TAP	85	352	2
TAP	85	352	6
BST	86	0	0
SLR	86	0	0	96	96	7
BST	86	0	4
SLR	86	0	4	96	96	3
TAP	86	96	0
TAP	86	96	4
TAP	86	240	0
TAP	86	264	7
TAP	86	288	2
TAP	86	312	3
TAP	86	336	1
TAP	86	360	3
TAP	87	0	0
TAP	87	24	7
TAP	87	48	4
TAP	87	72	5
TAP	87	96	4
TAP	87	120	6
TAP	87	144	0
TAP	87	168	7
TAP	87	192	3
TAP	87	216	4
TAP	87	240	1
TAP	87	264	6
TAP	87	288	2
TAP	87	312	5
TAP	87	336	0
TAP	87	360	7
STR	88	0	1
SLR	88	0	1	96	96	7
STR	88	0	6
SLL	88	0	6	96	96	0
TAP	88	96	1
TAP	88	96	6
TAP	88	240	1
TAP	88	240	6
TAP	88	264	5
TAP	88	288	4
TAP	88	312	3
TAP	88	336	2
TAP	88	360	1
TAP	89	0	0
TAP	89	0	7
TAP	89	24	6
TAP	89	48	5
TAP	89	72	4
TAP	89	96	3
TAP	89	120	2
STR	89	144	1
SSR	89	144	1	96	72	5
TAP	89	168	0
TAP	89	192	7
TAP	89	216	6
XTP	89	240	1
XTP	89	240	5
XST	90	0	1
SV_	90	0	1	96	48	7
TTP	90	0	2	E	0	M1
XST	90	0	6
TTP	90	0	6	E	0	M1
SV_	90	0	6	96	48	0
TTP	90	6	2	B	0	M1
TTP	90	6	5	B	0	M1
TTP	90	12	3	B	0	M1
TTP	90	12	4	B	0	M1
TTP	90	18	4	E	0	M1
TAP	90	240	3
TAP	90	264	4
TAP	90	288	1
TAP	90	312	0
TAP	90	336	2
TAP	90	360	7
TAP	91	0	3
TAP	91	24	4
TAP	91	48	7
TAP	91	72	6
TAP	91	96	0
TAP	91	120	5
TAP	91	144	3
TAP	91	168	4
TAP	91	192	0
TAP	91	216	7
TAP	91	240	2
TAP	91	264	5
TAP	91	288	1
TAP	91	312	6
TAP	91	336	3
TAP	91	360	4
STR	92	0	2
SI_	92	0	2	96	48	7
TAP	92	0	5
STR	92	48	6
SI_	92	48	6	96	48	3
TAP	92	96	2
TAP	92	144	6
TAP	92	240	1
TAP	92	240	6
TAP	92	264	2
TAP	92	288	3
TAP	92	312	4
TAP	92	336	5
TAP	92	360	6
TAP	93	0	0
TAP	93	0	7
TAP	93	24	1
TAP	93	48	2
TAP	93	72	3
TAP	93	96	7
TAP	93	120	6
TAP	93	144	5
TAP	93	168	4
TAP	93	192	2
TAP	93	208	3
TAP	93	224	2
TAP	93	240	3
TAP	93	256	2
TAP	93	272	3
TAP	93	288	1
TAP	93	300	2
TAP	93	312	3
TAP	93	324	4
TAP	93	336	5
TAP	93	348	6
TAP	93	360	0
STR	93	360	7
SSR	93	360	7	96	72	3
TTP	94	96	0	C	1	M1
BST	94	96	3
SCL	94	96	3	96	1296	4
TTP	95	32	5	B	0	M1
TTP	95	64	4	B	0	M1
TTP	95	96	0	C	0	M1
TTP	95	224	3	E	0	M1
TTP	95	352	5	E	0	M1
TTP	96	192	2	B	0	M1
TTP	96	224	3	B	0	M1
THO	96	256	0	512	C	0	M1
TTP	97	352	6	E	0	M1
TTP	97	360	7	E	0	M1
TTP	97	368	0	E	0	M1
TTP	97	376	1	E	0	M1
TTP	98	0	2	E	0	M1

T_REC_TAP	585
T_REC_BRK	2
T_REC_XTP	30
T_REC_HLD	72
T_REC_XHO	0
T_REC_STR	93
T_REC_BST	3
T_REC_XST	4
T_REC_TTP	59
T_REC_THO	4
T_REC_SLD	102
T_REC_ALL	954
T_NUM_TAP	771
T_NUM_BRK	5
T_NUM_HLD	76
T_NUM_SLD	102
T_NUM_ALL	954
T_JUDGE_TAP	776
T_JUDGE_HLD	207
T_JUDGE_SLD	102
T_JUDGE_ALL	1085
TTM_EACHPAIRS	143
TTM_SCR_TAP	385500
TTM_SCR_BRK	13000
TTM_SCR_HLD	76000
TTM_SCR_SLD	153000
TTM_SCR_ALL	627500
TTM_SCR_S	608200
TTM_SCR_SS	627000
TTM_RAT_ACV	10007

