VERSION	0.00.00	1.03.00
FES_MODE	0
BPM_DEF	182.000	182.000	182.000	182.000
MET_DEF	4	4
RESOLUTION	384
CLK_DEF	384
COMPATIBLE_CODE	MA2

BPM	0	0	182.000
MET	0	0	4	4

HLD	1	240	2	96
HLD	1	240	5	96
TAP	2	0	4
HLD	2	48	4	240
HLD	2	144	3	240
TTP	3	0	5	E	0	M1
TTP	3	96	4	E	0	M1
TTP	3	192	3	E	0	M1
TTP	3	288	2	E	0	M1
TAP	4	0	5
HLD	4	48	5	240
HLD	4	144	3	240
TAP	5	0	4
TAP	5	96	2
TAP	5	192	1
TAP	5	192	5
TAP	5	240	1
TAP	5	240	5
TAP	6	0	0
TAP	6	24	7
TAP	6	48	0
TAP	6	72	7
TAP	6	96	0
TAP	6	120	7
HLD	6	144	0	144
TTP	7	0	3	E	0	M1
TTP	7	96	4	E	0	M1
TTP	7	192	5	E	0	M1
TTP	7	288	6	E	0	M1
TAP	8	0	2
HLD	8	48	2	240
HLD	8	144	4	240
TAP	9	0	3
TAP	9	96	5
TAP	9	192	2
TAP	9	192	6
TAP	9	240	2
TAP	9	240	6
STR	10	0	7
SCL	10	0	7	96	384	0
TAP	11	288	2
TAP	11	288	5
HLD	12	0	1	96
HLD	12	96	3	96
STR	12	192	0
SCR	12	192	0	96	96	3
TAP	12	288	4
TAP	13	0	5
TAP	13	96	6
TAP	13	144	6
TAP	13	192	4
TAP	13	288	3
TAP	13	288	7
HLD	14	0	6	96
HLD	14	96	4	96
STR	14	192	7
SCL	14	192	7	96	96	4
TAP	14	288	3
TAP	15	0	2
TAP	15	96	1
TAP	15	144	1
TAP	15	192	3
TAP	15	288	0
TAP	15	288	4
TAP	16	0	5
TAP	16	48	5
TAP	16	96	4
TAP	16	144	3
HLD	16	144	5	96
TAP	16	240	2
TAP	16	288	2
TAP	16	336	1
TAP	16	336	4
TAP	17	0	1
TAP	17	0	4
TAP	17	96	3
TAP	17	144	4
TAP	17	192	5
TAP	17	240	5
TAP	17	288	4
TAP	17	336	3
TAP	18	0	2
TAP	18	48	2
TAP	18	96	3
HLD	18	144	2	96
TAP	18	144	4
TAP	18	240	5
TAP	18	288	5
TAP	18	336	3
TAP	18	336	6
TAP	19	0	3
TAP	19	0	6
TAP	19	96	4
TAP	19	144	3
TAP	19	192	2
TAP	19	240	2
TAP	19	288	3
TAP	19	288	4
HLD	20	0	6	96
TAP	20	96	4
STR	20	192	3
SCL	20	192	3	96	96	0
STR	20	192	7
SCL	20	192	7	96	96	4
TAP	21	96	1
TAP	21	144	1
TAP	21	192	3
TAP	21	288	0
TAP	21	288	4
HLD	22	0	1	96
TAP	22	96	3
STR	22	192	0
SCR	22	192	0	96	96	3
STR	22	192	4
SCR	22	192	4	96	96	7
TAP	23	96	6
TAP	23	144	6
TAP	23	192	4
TAP	23	288	3
TAP	23	288	7
TAP	24	0	2
TAP	24	48	2
TAP	24	96	3
HLD	24	144	2	96
TAP	24	144	4
TAP	24	240	5
TAP	24	288	5
TAP	24	336	3
TAP	24	336	6
TAP	25	0	3
TAP	25	0	6
TAP	25	48	5
TAP	25	96	4
TAP	25	144	3
TAP	25	192	2
TAP	25	240	2
TAP	25	288	3
TAP	25	336	4
TAP	26	0	5
TAP	26	48	5
TAP	26	96	4
TAP	26	144	3
HLD	26	144	5	96
TAP	26	240	2
TAP	26	288	2
TAP	26	336	1
TAP	26	336	4
TAP	27	0	1
TAP	27	0	4
TAP	27	48	2
TAP	27	96	3
TAP	27	144	4
TAP	27	192	5
TAP	27	240	5
TAP	27	288	3
TAP	27	288	4
TAP	28	0	2
TAP	28	0	3
STR	28	48	2
SCR	28	48	2	96	48	5
STR	28	48	3
SI_	28	48	3	96	48	0
HLD	28	288	7	96
HLD	29	48	0	96
HLD	29	48	6	96
HLD	29	192	1	96
HLD	29	192	4	96
TAP	29	336	2
TAP	29	336	3
TAP	30	0	3
TAP	30	0	4
STR	30	48	4
SI_	30	48	4	96	48	7
STR	30	48	5
SCL	30	48	5	96	48	2
HLD	30	288	0	96
HLD	31	48	1	96
HLD	31	48	7	96
TAP	31	192	2
TAP	31	192	6
TAP	31	240	2
TAP	31	240	6
BRK	31	288	3
BRK	31	288	5
TAP	32	0	2
TAP	32	0	3
STR	32	48	2
SI_	32	48	2	96	48	5
STR	32	48	3
SV_	32	48	3	96	48	0
HLD	32	288	7	96
HLD	33	48	3	96
HLD	33	48	6	96
HLD	33	192	1	96
HLD	33	192	4	96
TAP	33	336	2
TAP	33	336	3
TAP	34	0	3
TAP	34	0	4
STR	34	48	4
SV_	34	48	4	96	48	7
STR	34	48	5
SI_	34	48	5	96	48	2
HLD	34	288	0	96
HLD	35	48	1	96
HLD	35	48	4	96
TAP	35	192	2
TAP	35	192	5
HLD	35	240	2	96
HLD	35	240	5	96
STR	36	0	1
SI_	36	0	1	96	48	5
TAP	36	192	6
TAP	36	224	4
TAP	36	256	5
HLD	36	288	3	64
XTP	36	352	6
TAP	37	0	6
TAP	37	32	4
TAP	37	64	5
HLD	37	96	3	64
XTP	37	160	6
TAP	37	192	6
TAP	37	224	4
TAP	37	256	5
HLD	37	288	3	64
XTP	37	352	6
STR	38	0	6
SI_	38	0	6	96	48	2
TAP	38	192	1
TAP	38	224	3
TAP	38	256	2
HLD	38	288	7	64
XTP	38	352	1
TAP	39	0	1
TAP	39	32	3
TAP	39	64	2
HLD	39	96	7	64
XTP	39	160	1
STR	39	192	1
SI_	39	192	1	96	48	5
STR	40	0	6
SI_	40	0	6	96	48	2
TAP	40	192	1
TAP	40	224	3
TAP	40	256	2
HLD	40	288	4	64
XTP	40	352	1
TAP	41	0	1
TAP	41	32	3
TAP	41	64	2
HLD	41	96	4	64
XTP	41	160	1
TAP	41	192	1
TAP	41	224	3
TAP	41	256	2
HLD	41	288	4	64
XTP	41	352	1
TAP	42	0	3
TAP	42	64	3
TAP	42	96	1
TAP	42	160	6
TAP	42	192	4
TAP	42	256	4
TAP	42	288	6
TAP	42	352	6
TAP	43	0	7
TAP	43	64	1
TAP	43	96	0
TAP	43	160	2
TAP	43	192	3
TAP	43	256	5
TAP	43	288	4
TAP	43	320	5
TAP	43	352	4
STR	44	0	6
SI_	44	0	6	96	48	2
TAP	44	192	1
TAP	44	224	3
TAP	44	256	2
HLD	44	288	4	64
XTP	44	352	1
TAP	45	0	1
TAP	45	32	3
TAP	45	64	2
HLD	45	96	4	64
XTP	45	160	1
TAP	45	192	1
TAP	45	224	3
TAP	45	256	2
HLD	45	288	4	64
XTP	45	352	1
STR	46	0	1
SI_	46	0	1	96	48	5
TAP	46	192	6
TAP	46	224	4
TAP	46	256	5
HLD	46	288	0	64
XTP	46	352	6
TAP	47	0	6
TAP	47	32	4
TAP	47	64	5
HLD	47	96	0	64
XTP	47	160	6
STR	47	192	6
SI_	47	192	6	96	48	2
STR	48	0	1
SI_	48	0	1	96	48	5
TAP	48	192	6
TAP	48	224	4
TAP	48	256	5
HLD	48	288	3	64
XTP	48	352	6
TAP	49	0	6
TAP	49	32	4
TAP	49	64	5
HLD	49	96	3	64
XTP	49	160	6
TAP	49	192	6
TAP	49	224	4
TAP	49	256	5
HLD	49	288	3	64
XTP	49	352	6
TAP	50	0	4
TAP	50	64	4
TAP	50	96	6
TAP	50	160	1
TAP	50	192	3
TAP	50	256	3
TAP	50	288	1
TAP	50	352	1
TAP	51	0	0
TAP	51	64	6
TAP	51	96	7
TAP	51	160	5
TAP	51	192	4
TAP	51	256	2
TAP	51	288	3
TAP	51	320	2
TAP	51	352	3
HLD	52	0	1	768
STR	52	288	4
SLL	52	288	4	96	288	0
HLD	54	0	6	768
TTP	55	0	7	B	0	M1
TTP	55	0	7	E	0	M1
TTP	55	192	5	B	0	M1
TTP	55	192	5	E	0	M1
HLD	56	0	2	768
TTP	57	0	0	B	0	M1
TTP	57	0	1	E	0	M1
TTP	57	192	2	B	0	M1
TTP	57	192	3	E	0	M1
HLD	58	0	5	768
TTP	58	192	4	B	0	M1
TTP	58	192	5	E	0	M1
TTP	59	0	3	E	0	M1
TTP	59	96	2	E	0	M1
TTP	59	192	1	E	0	M1
TAP	60	0	3
TAP	60	96	3
TAP	60	192	3
STR	60	288	3
SXR	60	288	3	96	288	0
TAP	61	0	4
TAP	61	96	4
TAP	61	192	4
STR	61	288	4
SXL	61	288	4	96	288	7
TAP	62	0	0
TAP	62	96	0
TAP	62	192	0
STR	62	288	0
SXL	62	288	0	96	288	3
TAP	63	0	7
TAP	63	96	7
TAP	63	192	7
TAP	63	288	7
TAP	64	0	3
TAP	64	48	3
TAP	64	96	5
TAP	64	144	5
TAP	64	192	2
TAP	64	240	2
TAP	64	288	4
TAP	64	336	4
TAP	65	0	1
TAP	65	48	1
TAP	65	96	6
TAP	65	144	6
TAP	65	192	2
TAP	65	240	2
TAP	65	288	5
TAP	65	336	5
TAP	66	0	3
TAP	66	24	4
TAP	66	48	3
TAP	66	72	4
TAP	66	96	3
TAP	66	120	4
TAP	66	144	3
TAP	66	168	4
TAP	66	192	2
TAP	66	216	5
TAP	66	240	2
TAP	66	264	5
TAP	66	288	2
TAP	66	312	5
TAP	66	336	2
TAP	66	360	5
TAP	67	0	1
TAP	67	24	6
TAP	67	48	1
TAP	67	72	6
TAP	67	96	1
TAP	67	120	6
TAP	67	144	1
TAP	67	168	6
TAP	67	192	0
TAP	67	216	7
TAP	67	240	0
TAP	67	264	7
TAP	67	288	1
TAP	67	312	6
TAP	67	336	1
TAP	67	360	6
XHO	68	0	0	384
TAP	69	0	4
TAP	69	48	4
TAP	69	120	1
TAP	69	120	5
TAP	69	192	2
HLD	69	192	6	96
BRK	69	288	0
STR	70	0	5
SCL	70	0	5	96	48	2
HLD	70	96	1	192
TAP	70	192	3
TAP	70	288	0
TAP	70	336	0
TAP	71	48	3
TAP	71	48	6
TAP	71	96	3
HLD	71	96	6	192
TAP	71	192	4
TAP	71	288	7
TAP	71	336	7
TAP	72	48	1
TAP	72	48	4
HLD	72	96	1	192
TAP	72	96	4
TAP	72	192	3
TAP	72	288	0
TAP	72	336	0
TAP	73	48	3
TAP	73	48	6
TAP	73	96	3
TAP	73	96	6
TAP	73	192	4
TAP	73	240	3
TAP	73	288	2
TAP	73	288	5
HLD	74	0	0	48
HLD	74	48	1	48
HLD	74	96	2	48
HLD	74	144	3	48
HLD	74	192	4	48
HLD	74	240	5	48
HLD	74	288	6	48
HLD	74	336	7	48
BRK	75	0	0
BRK	75	48	1
BRK	75	96	2
BRK	75	144	3
BRK	75	192	4
BRK	75	240	5
BRK	75	288	6
BRK	75	336	7
BST	76	0	0
SI_	76	0	0	96	48	4
TAP	76	96	6
STR	76	144	6
SI_	76	144	6	96	48	2
TAP	76	240	1
HLD	76	288	1	288
TAP	77	96	7
XTP	77	192	7
XTP	77	216	6
XTP	77	240	5
XTP	77	264	4
XTP	77	288	3
XTP	77	312	2
XTP	77	336	1
XTP	77	360	0
XHO	78	0	7	96
HLD	78	144	2	96
HLD	78	144	4	96
BRK	78	288	1
BRK	78	288	5
TAP	79	48	3
TAP	79	96	4
TAP	79	144	5
TAP	79	192	6
TAP	79	240	3
TAP	79	288	2
TAP	79	336	1
HLD	80	0	0	96
HLD	80	144	3	96
HLD	80	144	5	96
BST	80	288	2
SV_	80	288	2	96	96	0
BST	80	288	6
SV_	80	288	6	96	96	4
TAP	81	192	2
TAP	81	240	3
TAP	81	288	4
TAP	81	336	5
TAP	82	0	5
TAP	82	48	4
TAP	82	96	6
TAP	82	144	2
TAP	82	192	3
TAP	82	240	1
HLD	82	288	1	96
TAP	83	0	3
TAP	83	48	3
TAP	83	96	0
TAP	83	96	4
HLD	83	192	1	48
HLD	83	192	5	48
HLD	83	288	2	48
HLD	83	288	6	48
STR	84	0	7
SI_	84	0	7	96	48	3
TAP	84	96	1
STR	84	144	1
SI_	84	144	1	96	48	5
TAP	84	240	6
STR	84	288	6
SI_	84	288	6	96	48	3
TAP	85	0	2
TAP	85	96	1
XTP	85	192	7
XTP	85	224	7
XTP	85	256	7
XTP	85	288	0
XTP	85	320	0
XTP	85	352	0
XHO	86	0	6	96
TAP	86	144	2
TAP	86	144	5
TAP	86	192	2
STR	86	192	5
SI_	86	192	5	96	48	0
STR	86	288	1
SI_	86	288	1	96	48	4
STR	87	0	6
SI_	87	0	6	96	48	3
STR	87	96	2
SI_	87	96	2	96	48	7
TAP	87	192	5
TAP	87	288	0
TAP	87	288	6
HLD	88	0	1	96
HLD	88	0	7	96
TAP	88	144	2
TAP	88	144	6
STR	88	192	2
SI_	88	192	2	96	48	7
TAP	88	192	6
STR	88	288	6
SI_	88	288	6	96	48	3
STR	89	0	1
SI_	89	0	1	96	48	4
STR	89	96	5
SXL	89	96	5	96	192	3
HLD	90	0	2	96
TAP	90	144	1
TAP	90	144	3
STR	90	192	1
SI_	90	192	1	96	48	4
TAP	90	192	3
STR	90	288	3
SI_	90	288	3	96	48	6
STR	91	0	5
SI_	91	0	5	96	48	0
STR	91	96	7
SI_	91	96	7	96	48	2
HLD	91	192	1	96
TAP	91	288	3
HLD	92	0	3	96
HLD	92	0	5	96
TAP	92	144	4
TAP	92	144	6
TAP	92	192	4
STR	92	192	6
SI_	92	192	6	96	48	3
STR	92	288	4
SI_	92	288	4	96	48	1
STR	93	0	2
SI_	93	0	2	96	48	7
STR	93	96	0
SI_	93	96	0	96	48	5
HLD	93	192	6	96
TAP	93	288	4
STR	94	0	3
SCR	94	0	3	96	1440	2
HLD	94	96	5	1440

T_REC_TAP	349
T_REC_BRK	13
T_REC_XTP	30
T_REC_HLD	88
T_REC_XHO	3
T_REC_STR	49
T_REC_BST	3
T_REC_XST	0
T_REC_TTP	21
T_REC_THO	0
T_REC_SLD	52
T_REC_ALL	608
T_NUM_TAP	449
T_NUM_BRK	16
T_NUM_HLD	91
T_NUM_SLD	52
T_NUM_ALL	608
T_JUDGE_TAP	465
T_JUDGE_HLD	289
T_JUDGE_SLD	52
T_JUDGE_ALL	806
TTM_EACHPAIRS	74
TTM_SCR_TAP	224500
TTM_SCR_BRK	41600
TTM_SCR_HLD	91000
TTM_SCR_SLD	78000
TTM_SCR_ALL	435100
TTM_SCR_S	420500
TTM_SCR_SS	433500
TTM_RAT_ACV	10036

