VERSION	0.00.00	1.03.00
FES_MODE	0
BPM_DEF	182.000	182.000	182.000	182.000
MET_DEF	4	4
RESOLUTION	384
CLK_DEF	384
COMPATIBLE_CODE	MA2

BPM	0	0	182.000
MET	0	0	4	4

TAP	2	0	4
STR	2	0	5
SI_	2	0	5	96	144	0
TAP	3	0	1
TAP	3	96	1
TAP	3	192	0
TAP	3	192	1
STR	4	0	2
SI_	4	0	2	96	144	7
TAP	4	0	3
TAP	5	0	6
TAP	5	96	6
TAP	5	192	7
XST	5	288	7
SSR	5	288	7	96	240	3
TAP	7	0	2
TAP	7	96	2
TAP	7	192	2
TAP	7	192	3
TAP	8	0	0
STR	8	0	1
SI_	8	0	1	96	144	4
TAP	9	0	5
TAP	9	96	5
TAP	9	192	4
TAP	9	192	5
BST	10	0	3
SI_	10	0	3	96	144	0
BST	10	0	4
SI_	10	0	4	96	144	7
TAP	11	0	0
TAP	11	0	7
TAP	11	96	0
TAP	11	96	7
TAP	11	192	1
TAP	11	192	6
TAP	12	0	5
TAP	12	96	5
TAP	12	192	4
TAP	12	192	5
TAP	13	0	2
TAP	13	96	2
TAP	13	192	2
TAP	13	192	3
TAP	14	0	5
TAP	14	96	5
TAP	14	192	4
TAP	14	288	4
TAP	15	0	3
TAP	15	96	3
TAP	15	192	2
TAP	15	192	4
STR	16	0	1
SI_	16	0	1	96	144	4
STR	17	0	5
SI_	17	0	5	96	144	0
STR	18	0	1
SI_	18	0	1	96	144	5
TAP	19	0	6
TAP	19	96	6
TAP	19	192	0
TAP	19	192	7
TAP	20	0	1
TAP	20	96	1
TAP	20	192	0
TAP	20	192	1
TAP	21	0	6
TAP	21	96	6
TAP	21	192	6
TAP	21	192	7
TAP	22	0	1
TAP	22	96	1
TAP	22	192	0
TAP	22	288	0
TAP	23	0	7
TAP	23	96	7
TAP	23	192	0
TAP	23	192	6
STR	24	0	5
SI_	24	0	5	96	144	0
STR	25	0	1
SI_	25	0	1	96	144	4
STR	26	0	5
SI_	26	0	5	96	144	2
TAP	27	0	1
TAP	27	96	1
BRK	27	192	0
BRK	27	192	7
XST	28	0	0
SI_	28	0	0	96	144	5
XST	28	0	1
SI_	28	0	1	96	144	4
TAP	29	0	6
TAP	29	96	6
TAP	29	192	0
TAP	29	288	0
XST	30	0	6
SI_	30	0	6	96	144	3
XST	30	0	7
SI_	30	0	7	96	144	2
TAP	31	0	1
TAP	31	96	1
TAP	31	192	0
XST	31	288	0
SSL	31	288	0	96	240	4
TAP	33	0	5
TAP	33	96	5
TAP	33	192	6
TAP	33	288	6
XST	34	0	6
SI_	34	0	6	96	144	3
XST	34	0	7
SI_	34	0	7	96	144	2
TAP	35	0	1
TAP	35	96	1
TAP	35	192	0
TAP	35	192	7
XHO	36	0	6	192
HLD	36	192	7	192
HLD	37	0	0	192
TAP	37	192	1
XHO	38	0	2	192
HLD	38	192	3	192
HLD	39	0	4	192
TAP	39	192	5
TAP	39	288	5
XTP	40	0	4
XTP	40	0	6
TTP	40	192	6	B	0	L1
TTP	40	192	7	B	0	L1
TTP	41	0	0	B	0	L1
TTP	41	0	1	B	0	L1
TTP	41	192	2	B	0	L1
TTP	41	192	3	B	0	L1
XTP	42	0	5
TAP	42	96	5
TAP	42	192	4
TAP	42	288	4
TAP	43	0	3
TAP	43	96	3
TAP	43	192	2
TAP	43	192	4
XHO	44	0	2	192
HLD	44	192	3	192
HLD	45	0	4	192
TAP	45	192	5
XHO	46	0	6	192
HLD	46	192	7	192
HLD	47	0	0	192
TAP	47	192	1
TAP	47	288	1
XTP	48	0	0
XTP	48	0	2
TTP	48	192	2	B	0	L1
TTP	48	192	3	B	0	L1
TTP	49	0	4	B	0	L1
TTP	49	0	5	B	0	L1
TTP	49	192	6	B	0	L1
TTP	49	192	7	B	0	L1
XTP	50	0	1
TAP	50	96	1
TAP	50	192	0
TAP	50	288	0
TAP	51	0	0
TAP	51	0	7
TAP	51	96	0
TAP	51	96	7
TAP	51	192	1
TAP	51	192	6
THO	52	0	0	1152	C	0	L1
STR	56	0	7
SUL	56	0	7	96	480	4
STR	58	0	3
SUL	58	0	3	96	480	0
TAP	60	0	6
TAP	60	96	6
TAP	60	192	6
TAP	60	192	7
TAP	61	0	1
TAP	61	96	1
TAP	61	192	0
TAP	61	192	1
TAP	62	0	6
TAP	62	96	6
TAP	62	192	6
TAP	62	192	7
TAP	63	0	0
TAP	63	96	0
TAP	63	192	1
TAP	63	192	7
TAP	64	0	6
TAP	64	96	5
TAP	64	192	4
TAP	64	288	3
TAP	65	0	2
TAP	65	96	1
TAP	65	192	0
TAP	65	288	0
TAP	65	288	7
TAP	66	0	6
TAP	66	48	6
TAP	66	96	6
TAP	66	192	5
TAP	66	240	5
TAP	66	288	5
TAP	67	0	4
TAP	67	48	4
TAP	67	96	4
TAP	67	192	3
TAP	67	240	3
TAP	67	288	3
TTP	68	0	0	C	1	L1
XTP	69	0	0
XTP	69	0	7
TAP	69	96	0
TAP	69	96	7
BRK	69	192	1
BRK	69	192	6
TAP	70	0	5
TAP	70	96	5
TAP	70	192	4
TAP	70	192	5
TAP	70	288	3
TAP	70	288	6
TAP	71	0	2
TAP	71	96	2
TAP	71	192	2
TAP	71	192	3
TAP	71	288	1
TAP	71	288	4
TAP	72	0	0
TAP	72	96	1
TAP	72	192	0
TAP	72	192	1
TAP	72	288	2
TAP	72	288	7
TAP	73	0	6
TAP	73	96	6
TAP	73	192	0
TAP	73	192	7
TAP	74	0	1
TAP	74	96	2
TAP	74	192	3
TAP	74	288	4
TAP	75	0	5
TAP	75	96	6
TAP	75	192	7
XTP	76	0	1
XTP	76	0	6
XTP	76	144	2
XTP	76	144	5
XTP	76	288	0
XST	76	288	7
SCL	76	288	7	96	240	1
XHO	78	0	0	144
XHO	78	0	7	144
TAP	78	288	0
TAP	78	288	7
TAP	79	0	6
TAP	79	96	4
TAP	79	96	5
TAP	79	192	2
TAP	79	288	2
TAP	79	288	3
XHO	80	0	1	144
XHO	80	0	4	144
TAP	80	288	1
TAP	80	288	4
TAP	81	0	5
TAP	81	96	6
TAP	81	192	7
TAP	81	288	0
TAP	82	0	1
TAP	82	96	2
TAP	82	96	3
TAP	82	192	5
TAP	82	288	4
TAP	82	288	5
TAP	83	0	6
TAP	83	96	6
TAP	83	96	7
TAP	83	192	0
XTP	84	0	1
XTP	84	0	6
XTP	84	144	2
XTP	84	144	5
XST	84	288	0
SCR	84	288	0	96	240	6
XTP	84	288	7
TAP	86	0	0
TAP	86	0	7
TAP	86	96	0
TAP	86	96	7
TAP	86	192	1
TAP	86	192	6
TAP	86	288	4
TAP	86	288	5
TAP	86	336	4
TAP	86	336	5
TAP	87	0	4
TAP	87	0	5
TAP	87	96	2
TAP	87	96	3
TAP	87	144	2
TAP	87	144	3
TAP	87	192	2
TAP	87	192	3
TAP	87	288	1
TAP	87	288	4
TAP	88	0	0
TAP	88	96	0
TAP	88	96	7
TAP	88	192	1
TAP	88	192	6
TAP	88	288	2
TAP	88	288	3
TAP	88	336	2
TAP	88	336	3
TAP	89	0	2
TAP	89	0	3
TAP	89	96	4
TAP	89	96	5
TAP	89	144	4
TAP	89	144	5
TAP	89	192	4
TAP	89	192	5
TAP	89	288	3
TAP	89	288	6
TAP	90	0	7
TAP	90	96	0
TAP	90	96	7
TAP	90	192	1
TAP	90	192	6
TAP	90	288	2
TAP	90	288	4
TAP	90	336	2
TAP	90	336	4
TAP	91	0	2
TAP	91	0	4
TAP	91	96	3
TAP	91	96	5
TAP	91	144	3
TAP	91	144	5
TAP	91	192	3
TAP	91	192	5
TAP	91	288	2
TAP	91	288	6
TAP	92	0	7
TAP	92	96	0
TAP	92	96	7
TAP	92	192	1
TAP	92	192	6
TAP	92	288	3
TAP	92	288	5
TAP	92	336	3
TAP	92	336	5
TAP	93	0	3
TAP	93	0	5
TAP	93	96	2
TAP	93	96	4
TAP	93	144	2
TAP	93	144	4
TAP	93	192	2
TAP	93	192	4
TAP	93	288	1
TAP	93	288	5
TAP	93	336	1
TAP	93	336	5
THO	94	96	0	1440	C	0	L1

T_REC_TAP	270
T_REC_BRK	4
T_REC_XTP	18
T_REC_HLD	8
T_REC_XHO	8
T_REC_STR	11
T_REC_BST	2
T_REC_XST	10
T_REC_TTP	13
T_REC_THO	2
T_REC_SLD	23
T_REC_ALL	369
T_NUM_TAP	322
T_NUM_BRK	6
T_NUM_HLD	18
T_NUM_SLD	23
T_NUM_ALL	369
T_JUDGE_TAP	328
T_JUDGE_HLD	114
T_JUDGE_SLD	23
T_JUDGE_ALL	465
TTM_EACHPAIRS	96
TTM_SCR_TAP	161000
TTM_SCR_BRK	15600
TTM_SCR_HLD	18000
TTM_SCR_SLD	34500
TTM_SCR_ALL	229100
TTM_SCR_S	221650
TTM_SCR_SS	228500
TTM_RAT_ACV	10026

