VERSION	0.00.00	1.03.00
FES_MODE	0
BPM_DEF	182.000	182.000	182.000	182.000
MET_DEF	4	4
RESOLUTION	384
CLK_DEF	384
COMPATIBLE_CODE	MA2

BPM	0	0	182.000
MET	0	0	4	4

XHO	2	0	0	288
XHO	4	0	7	288
HLD	6	0	0	288
HLD	8	0	7	288
BRK	10	0	0
TAP	12	0	7
TAP	12	192	7
TAP	13	0	7
TAP	14	0	6
TAP	14	192	6
TAP	15	0	6
TAP	16	0	5
TAP	16	192	5
TAP	17	0	5
TAP	18	0	4
TAP	18	192	4
TAP	19	0	3
TAP	19	0	4
TAP	20	0	3
TAP	20	192	3
TAP	21	0	3
TAP	22	0	2
TAP	22	192	2
TAP	23	0	2
TAP	24	0	1
TAP	24	192	1
TAP	25	0	1
TAP	26	0	0
TAP	26	192	0
TAP	27	0	0
TAP	27	0	7
HLD	28	0	0	288
HLD	28	0	1	288
HLD	30	0	2	288
HLD	30	0	3	288
HLD	32	0	4	288
HLD	32	0	5	288
HLD	34	0	6	288
HLD	34	0	7	288
STR	36	0	0
SI_	36	0	0	96	288	3
STR	38	0	4
SI_	38	0	4	96	288	7
STR	40	0	0
SI_	40	0	0	96	288	4
STR	42	0	6
SI_	42	0	6	96	288	2
STR	44	0	0
SI_	44	0	0	96	288	4
STR	46	0	5
SI_	46	0	5	96	288	1
STR	48	0	1
SI_	48	0	1	96	288	5
TAP	50	0	7
TAP	50	192	7
TAP	51	0	0
TAP	51	192	0
BRK	52	0	0
BRK	52	0	7
HLD	56	0	0	384
HLD	56	0	7	384
HLD	58	0	1	384
HLD	58	0	6	384
TTP	60	0	6	B	0	L1
TTP	60	0	7	B	0	L1
TTP	61	0	4	B	0	L1
TTP	61	0	5	B	0	L1
TTP	62	0	2	B	0	L1
TTP	62	0	3	B	0	L1
TTP	63	0	0	B	0	L1
TTP	63	0	1	B	0	L1
TTP	64	0	2	B	0	L1
TTP	64	0	3	B	0	L1
TTP	64	0	3	E	0	L1
TTP	65	0	4	B	0	L1
TTP	65	0	5	B	0	L1
TTP	65	0	5	E	0	L1
THO	66	0	0	768	C	1	L1
TAP	70	0	7
TAP	70	192	7
TAP	71	0	6
TAP	71	96	6
TAP	71	192	6
TAP	72	0	5
TAP	72	192	5
TAP	73	0	4
TAP	73	96	4
TAP	73	192	3
TAP	73	192	4
TAP	74	0	3
TAP	74	96	3
TAP	74	192	3
TAP	75	0	2
TAP	75	192	2
TAP	76	0	1
TAP	76	96	1
TAP	76	192	1
XTP	77	0	0
XTP	77	0	7
TAP	77	192	0
TAP	77	192	7
TAP	78	0	0
TAP	78	0	1
TAP	78	192	0
TAP	78	192	1
TAP	79	0	2
TAP	79	0	3
TAP	79	192	2
TAP	79	192	3
TAP	80	0	4
TAP	80	0	5
TAP	80	192	4
TAP	80	192	5
TAP	81	0	6
TAP	81	0	7
TAP	81	192	6
TAP	81	192	7
TAP	82	0	7
TAP	82	96	7
TAP	82	192	6
TAP	82	192	7
TAP	83	0	5
TAP	83	96	5
TAP	83	192	4
TAP	83	192	5
TAP	84	0	2
TAP	84	96	2
TAP	84	192	2
TAP	84	192	3
TAP	85	0	1
TAP	85	96	1
XTP	85	192	0
XTP	85	192	1
TAP	86	0	0
TAP	86	96	0
TAP	86	192	1
TAP	86	288	1
TAP	87	0	2
TAP	87	96	2
TAP	87	192	2
TAP	87	192	3
TAP	88	0	4
TAP	88	96	4
TAP	88	192	5
TAP	88	288	5
TAP	89	0	6
TAP	89	96	6
TAP	89	192	6
TAP	89	192	7
TAP	90	0	7
TAP	90	96	7
TAP	90	192	6
TAP	90	288	6
TAP	91	0	5
TAP	91	96	5
TAP	91	192	3
TAP	91	192	4
TAP	91	288	3
TAP	91	288	4
TAP	92	0	2
TAP	92	96	2
TAP	92	192	1
TAP	92	288	1
TAP	93	0	0
TAP	93	96	0
TAP	93	192	7
XHO	93	288	0	192
XHO	93	288	7	192

T_REC_TAP	114
T_REC_BRK	3
T_REC_XTP	4
T_REC_HLD	14
T_REC_XHO	4
T_REC_STR	7
T_REC_BST	0
T_REC_XST	0
T_REC_TTP	14
T_REC_THO	1
T_REC_SLD	7
T_REC_ALL	168
T_NUM_TAP	139
T_NUM_BRK	3
T_NUM_HLD	19
T_NUM_SLD	7
T_NUM_ALL	168
T_JUDGE_TAP	142
T_JUDGE_HLD	128
T_JUDGE_SLD	7
T_JUDGE_ALL	277
TTM_EACHPAIRS	29
TTM_SCR_TAP	69500
TTM_SCR_BRK	7800
TTM_SCR_HLD	19000
TTM_SCR_SLD	10500
TTM_SCR_ALL	106800
TTM_SCR_S	103350
TTM_SCR_SS	106500
TTM_RAT_ACV	10028

