VERSION	0.00.00	1.03.00
FES_MODE	0
BPM_DEF	205.000	205.000	205.000	205.000
MET_DEF	4	4
RESOLUTION	384
CLK_DEF	384
COMPATIBLE_CODE	MA2

BPM	0	0	205.000
MET	0	0	4	4

THO	3	0	0	1152	C	0	M1
TTP	3	0	1	B	0	M1
TTP	3	0	2	B	0	M1
TTP	3	0	4	B	0	M1
TTP	3	0	5	B	0	M1
HLD	6	0	7	384
STR	7	0	4
SCL	7	0	4	96	288	2
STR	8	0	5
SCL	8	0	5	96	288	2
STR	9	0	6
SCL	9	0	6	96	384	2
STR	10	0	7
SUL	10	0	7	96	336	2
XTP	11	0	1
TAP	11	96	1
TAP	11	192	1
TAP	11	288	1
TAP	12	0	1
TAP	12	0	3
TAP	12	96	1
TAP	12	96	4
TAP	12	192	1
TAP	12	192	5
TAP	12	288	0
TAP	12	288	6
TAP	12	336	0
TAP	12	336	6
TAP	13	0	0
TAP	13	0	6
TAP	13	96	1
TAP	13	96	5
TAP	13	192	1
TAP	13	192	4
TAP	13	288	1
TAP	13	288	3
TAP	14	0	1
HLD	14	0	3	72
TAP	14	96	1
TAP	14	192	2
BST	14	192	3
SI_	14	192	3	96	48	7
TAP	15	0	0
TAP	15	48	0
TAP	15	96	6
TAP	15	144	6
TAP	15	192	1
TAP	15	240	1
TAP	15	288	5
TAP	15	336	5
TAP	16	0	2
TAP	16	24	4
TAP	16	48	2
TAP	16	72	4
TAP	16	96	2
TAP	16	120	4
TAP	16	144	2
TAP	16	168	4
TAP	16	192	3
TAP	16	216	5
TAP	16	240	3
TAP	16	264	5
TAP	16	288	3
TAP	16	312	5
TAP	16	336	3
TAP	16	360	5
TTP	17	0	0	C	1	M1
BRK	17	0	6
TAP	18	0	7
STR	18	48	7
SI_	18	48	7	96	48	4
TAP	18	144	4
HLD	18	192	3	96
STR	18	288	4
SCR	18	288	4	96	384	7
THO	19	0	0	768	C	0	M1
TAP	21	0	7
TAP	21	48	7
TAP	21	96	7
TAP	21	144	7
TAP	21	192	6
TAP	21	216	0
TAP	21	240	6
TAP	21	264	0
STR	21	288	6
SUL	21	288	6	96	192	3
TAP	21	312	0
TAP	21	336	6
TAP	21	360	0
TAP	22	0	6
STR	22	192	1
SI_	22	192	1	96	48	4
XTP	22	288	1
BRK	23	0	2
BRK	23	0	6
STR	23	96	3
SI_	23	96	3	96	48	7
TAP	23	96	4
TAP	23	192	7
TAP	23	288	0
TAP	23	288	4
TAP	23	336	1
TAP	24	0	2
TAP	24	0	6
TAP	24	48	2
TAP	24	96	2
TAP	24	96	4
TAP	24	144	4
TAP	24	192	0
TAP	24	192	4
TAP	24	240	1
TAP	24	288	2
STR	24	288	6
SI_	24	288	6	96	48	2
STR	25	0	0
SCL	25	0	0	96	48	5
STR	25	96	4
SI_	25	96	4	96	48	7
TAP	25	192	2
TAP	25	288	0
TAP	25	336	0
HLD	26	0	7	24
HLD	26	48	7	24
HLD	26	96	0	24
HLD	26	96	6	24
HLD	26	144	1	24
HLD	26	144	5	24
HLD	26	192	2	24
HLD	26	192	4	24
HLD	26	240	2	24
HLD	26	240	4	24
BRK	26	288	0
BRK	26	288	6
XTP	27	0	1
XTP	27	0	5
TAP	27	96	3
STR	27	96	4
SI_	27	96	4	96	48	0
TAP	27	192	0
TAP	27	288	3
TAP	27	288	7
TAP	27	336	6
TAP	28	0	1
TAP	28	0	5
TAP	28	48	5
TAP	28	96	3
TAP	28	96	5
TAP	28	144	3
TAP	28	192	3
TAP	28	192	7
TAP	28	240	6
STR	28	288	4
SI_	28	288	4	96	48	1
TAP	28	288	5
STR	29	0	7
SCL	29	0	7	96	48	4
STR	29	96	0
SCR	29	96	0	96	48	3
TAP	29	192	7
TAP	29	288	5
TAP	29	336	5
TAP	30	0	2
TAP	30	0	4
TAP	30	48	1
TAP	30	72	0
TAP	30	96	1
TAP	30	144	3
TAP	30	168	2
TAP	30	192	3
TAP	30	216	2
TAP	30	240	3
TAP	30	264	2
BST	30	288	4
SI_	30	288	4	96	48	0
XTP	31	0	3
TAP	31	96	1
TAP	31	96	7
TAP	31	192	3
TAP	31	192	5
TAP	31	288	2
TAP	31	288	4
TAP	31	336	1
TAP	32	0	0
TAP	32	0	7
TAP	32	48	6
TAP	32	72	4
TAP	32	96	6
TAP	32	144	1
TAP	32	168	3
TAP	32	192	1
TAP	32	240	0
TAP	32	288	1
TAP	32	288	7
TAP	32	336	2
TAP	33	0	3
TAP	33	0	4
XTP	33	48	5
XTP	33	72	4
XTP	33	96	6
TAP	33	144	7
STR	33	192	0
SI_	33	192	0	96	48	4
TAP	33	240	0
TAP	33	288	6
TAP	33	336	6
HLD	34	0	7	24
HLD	34	48	7	24
HLD	34	96	0	24
HLD	34	96	6	24
HLD	34	144	1	24
HLD	34	144	5	24
HLD	34	192	2	24
HLD	34	192	4	24
HLD	34	240	2	24
HLD	34	240	4	24
BRK	34	288	0
BRK	34	288	6
XTP	35	0	4
XTP	35	0	5
TAP	35	96	2
STR	35	96	3
SI_	35	96	3	96	48	7
STR	35	192	0
SCL	35	192	0	96	48	5
TAP	35	288	4
TAP	35	336	4
TAP	36	0	3
TAP	36	0	4
TAP	36	48	2
TAP	36	72	3
TAP	36	96	2
TAP	36	144	6
TAP	36	168	4
TAP	36	192	5
XTP	36	240	0
XTP	36	240	4
TAP	36	288	0
STR	36	288	4
SXL	36	288	4	96	384	1
BRK	37	0	2
XHO	38	0	0	96
TAP	38	144	1
TAP	38	144	7
TAP	38	240	3
TAP	38	240	5
BRK	38	288	1
BRK	38	288	7
TAP	39	0	3
HLD	39	0	5	96
TAP	39	96	4
TAP	39	144	3
HLD	39	144	6	96
TAP	39	240	5
XTP	39	288	3
XTP	39	288	7
HLD	40	0	6	72
HLD	40	72	4	72
TAP	40	144	5
XTP	40	240	5
XTP	40	264	4
XTP	40	288	6
HLD	41	0	2	96
TAP	41	0	4
TAP	41	96	3
HLD	41	144	1	96
TAP	41	144	4
TAP	41	240	2
XTP	41	288	0
XTP	41	288	4
HLD	42	0	1	72
HLD	42	72	3	72
TAP	42	144	2
TTP	42	192	4	B	0	M1
TTP	42	192	4	E	0	M1
TTP	42	240	1	B	0	M1
TTP	42	240	2	E	0	M1
THO	42	288	0	672	C	0	M1
XTP	43	0	0
TAP	43	192	0
TAP	44	0	7
TAP	44	192	7
TAP	45	0	0
TAP	45	0	7
TAP	45	48	1
TAP	45	72	0
TAP	45	96	1
TAP	45	144	2
TAP	45	168	3
TAP	45	192	2
TAP	45	240	5
TAP	45	264	4
TAP	45	288	5
TAP	45	336	3
TAP	45	336	4
XHO	46	0	3	144
XHO	46	0	4	144
TAP	46	192	3
TAP	46	192	4
TAP	46	288	0
STR	46	288	7
SI_	46	288	7	96	48	5
HLD	47	0	4	48
XST	47	0	7
SCR	47	0	7	96	48	1
HLD	47	96	2	48
XST	47	96	7
SI_	47	96	7	96	48	5
HLD	47	192	4	48
XST	47	192	7
SCR	47	192	7	96	48	1
HLD	47	288	2	48
XST	47	288	7
SI_	47	288	7	96	48	5
HLD	48	0	4	48
XST	48	0	7
SCR	48	0	7	96	48	1
HLD	48	96	2	48
XTP	48	96	7
XTP	48	192	2
TAP	48	192	3
TAP	48	240	1
TAP	48	240	4
BST	48	288	0
SCR	48	288	0	96	48	2
BST	48	288	5
SI_	48	288	5	96	48	3
XST	49	0	0
SI_	49	0	0	96	48	4
STR	49	0	5
SCR	49	0	5	96	48	7
STR	49	96	0
SCR	49	96	0	96	48	2
XST	49	96	5
SI_	49	96	5	96	48	3
XST	49	192	0
SI_	49	192	0	96	48	4
STR	49	192	5
SCR	49	192	5	96	48	7
TAP	49	288	0
XTP	49	288	5
BRK	50	0	2
BRK	50	0	6
TAP	50	96	3
TAP	50	144	3
TAP	50	192	2
TAP	50	192	4
TAP	50	240	1
TAP	50	240	5
XST	50	288	0
SI_	50	288	0	96	48	2
XTP	50	288	6
BST	51	0	0
SCL	51	0	0	96	48	6
HLD	51	0	3	48
BST	51	96	0
SI_	51	96	0	96	48	2
HLD	51	96	5	48
BST	51	192	0
SCL	51	192	0	96	48	6
HLD	51	192	3	48
BST	51	288	0
SI_	51	288	0	96	48	2
HLD	51	288	5	48
BST	52	0	0
SCL	52	0	0	96	48	6
HLD	52	0	3	48
BRK	52	96	0
HLD	52	96	5	48
TAP	52	192	4
XTP	52	192	5
TAP	52	240	4
TAP	52	240	5
STR	52	288	7
SCL	52	288	7	96	48	4
BRK	53	0	2
STR	53	0	7
SI_	53	0	7	96	48	3
BRK	53	48	2
BRK	53	96	2
TAP	53	96	7
BST	53	192	1
SCR	53	192	1	96	48	4
BST	53	192	4
SCR	53	192	4	96	48	7
TAP	53	288	1
TAP	53	288	4
XHO	54	0	0	32
XHO	54	0	1	32
HLD	54	64	2	32
HLD	54	64	7	32
HLD	54	128	3	32
HLD	54	128	6	32
HLD	54	192	4	32
HLD	54	192	5	32
HLD	54	256	2	32
HLD	54	256	3	32
HLD	54	320	0	32
HLD	54	320	1	32
TTP	55	0	0	C	1	M1
BRK	55	0	7
STR	59	0	7
SCL	59	0	7	96	576	1
TTP	59	192	0	C	0	M1
TTP	60	192	0	C	0	M1
STR	61	0	0
SCR	61	0	0	96	576	6
TTP	61	192	0	C	0	M1
TTP	62	192	0	C	0	M1
XTP	63	0	0
XTP	63	0	7
TAP	63	96	0
TAP	63	192	5
STR	63	240	5
SCL	63	240	5	96	48	3
TAP	63	336	3
TAP	64	0	2
HLD	64	48	2	96
TAP	64	144	3
STR	64	192	3
SI_	64	192	3	96	48	6
TAP	64	288	2
HLD	65	0	3	96
STR	65	96	5
SCL	65	96	5	96	48	3
TAP	65	192	2
HLD	65	240	2	96
TAP	65	336	3
XST	66	0	1
SI_	66	0	1	96	48	6
XTP	66	0	4
TAP	66	96	5
XST	66	144	5
SI_	66	144	5	96	48	2
TAP	66	240	1
XHO	66	288	1	96
TAP	67	0	3
TAP	67	96	1
TAP	67	96	3
TAP	67	192	2
STR	67	240	2
SCR	67	240	2	96	48	4
TAP	67	336	4
TAP	68	0	5
HLD	68	48	5	96
TAP	68	144	4
STR	68	192	4
SI_	68	192	4	96	48	1
TAP	68	288	5
HLD	69	0	4	96
STR	69	96	2
SI_	69	96	2	96	48	5
TAP	69	192	4
TAP	69	288	6
TAP	69	336	6
XHO	70	0	3	192
XHO	70	0	6	288
THO	70	288	0	768	C	0	M1
TAP	71	0	7
TAP	71	96	7
TAP	71	192	7
TAP	71	288	7
TAP	72	0	6
TAP	72	96	5
TAP	72	192	4
BRK	72	288	4
TAP	73	0	5
TAP	73	96	6
TAP	73	192	6
TAP	73	192	7
TAP	73	288	5
TAP	73	288	6
TAP	74	0	4
TAP	74	0	5
TAP	74	96	3
STR	74	96	4
SLR	74	96	4	96	96	2
BST	74	192	2
SI_	74	192	2	96	48	0
TAP	75	0	3
TAP	75	48	3
TAP	75	96	4
TAP	75	144	4
TAP	75	192	2
TAP	75	240	2
TAP	75	288	5
TAP	75	336	5
TAP	76	0	3
TAP	76	24	4
TAP	76	48	3
TAP	76	72	4
TAP	76	96	3
TAP	76	120	4
TAP	76	144	3
TAP	76	168	4
TAP	76	192	2
TAP	76	216	5
TAP	76	240	2
TAP	76	264	5
TAP	76	288	1
TAP	76	312	6
TAP	76	336	1
TAP	76	360	6
BST	77	0	0
SI_	77	0	0	96	48	4
XHO	77	96	5	288
TAP	78	0	4
TAP	78	96	2
STR	78	192	0
SF_	78	192	0	96	48	4
BRK	78	288	0
STR	79	0	2
SI_	79	0	2	96	48	7
STR	79	0	6
SCL	79	0	6	96	48	3
TAP	79	96	2
STR	79	96	6
SI_	79	96	6	96	48	2
STR	79	192	0
SI_	79	192	0	96	48	4
TAP	79	192	6
TAP	79	240	0
STR	79	288	0
SCR	79	288	0	96	48	3
TAP	79	336	3
TAP	80	0	0
TAP	80	48	5
TAP	80	96	6
TAP	80	144	3
TAP	80	144	7
TAP	80	192	3
TAP	80	192	7
TAP	80	240	6
TAP	80	264	4
TAP	80	288	5
TAP	80	312	2
TAP	80	336	3
TAP	80	360	1
STR	81	0	7
SCR	81	0	7	96	48	2
STR	81	96	3
SI_	81	96	3	96	48	0
TAP	81	96	7
TAP	81	192	3
TAP	81	192	4
TAP	81	240	5
TAP	81	288	6
TAP	81	336	0
TAP	82	0	1
BRK	82	0	3
TAP	82	48	7
TAP	82	96	7
BRK	82	144	4
TAP	82	144	6
TAP	82	192	3
TAP	82	240	3
TAP	82	288	2
TAP	82	288	4
TAP	82	336	2
TAP	82	336	4
STR	83	0	1
SCR	83	0	1	96	48	4
STR	83	0	5
SI_	83	0	5	96	48	0
STR	83	96	1
SI_	83	96	1	96	48	5
TAP	83	96	5
TAP	83	192	1
STR	83	192	7
SI_	83	192	7	96	48	3
TAP	83	240	7
STR	83	288	7
SCL	83	288	7	96	48	4
TAP	83	336	4
TAP	84	0	7
TAP	84	48	2
TAP	84	96	1
TAP	84	144	0
TAP	84	144	4
TAP	84	192	0
TAP	84	192	4
TAP	84	240	6
TAP	84	264	7
TAP	84	288	5
TAP	84	312	1
TAP	84	336	3
TAP	84	360	2
STR	85	0	4
SI_	85	0	4	96	48	1
TAP	85	96	4
STR	85	96	5
SCR	85	96	5	96	48	0
TAP	85	192	0
TAP	85	192	5
BRK	85	288	2
BRK	85	288	3
XHO	85	336	1	96
BRK	85	336	4
TAP	86	48	2
TAP	86	72	3
TAP	86	96	4
TAP	86	144	3
TAP	86	168	4
TAP	86	192	5
TAP	86	240	4
TAP	86	240	5
BRK	86	288	2
BRK	86	288	7
STR	87	0	3
SI_	87	0	3	96	48	7
STR	87	0	6
SCL	87	0	6	96	48	3
TAP	87	96	3
STR	87	96	6
SI_	87	96	6	96	48	2
STR	87	192	1
SI_	87	192	1	96	48	5
TAP	87	192	6
TAP	87	240	0
TAP	87	288	1
STR	87	288	7
SI_	87	288	7	96	48	4
TAP	87	336	0
TAP	88	0	3
TAP	88	0	7
TAP	88	48	2
TAP	88	96	1
TAP	88	96	3
TAP	88	144	4
TAP	88	192	3
TAP	88	192	5
TAP	88	240	5
TAP	88	264	4
STR	88	288	6
SI_	88	288	6	96	48	2
TAP	88	312	0
TAP	88	336	7
TAP	88	360	1
STR	89	0	6
SCL	89	0	6	96	48	3
SCR	89	0	6	96	48	1
TAP	89	96	6
TAP	89	192	2
TAP	89	192	6
STR	89	288	3
SI_	89	288	3	96	48	7
STR	89	288	4
SI_	89	288	4	96	48	0
TAP	89	336	2
TAP	89	336	5
BRK	90	0	3
BRK	90	0	4
TAP	90	96	1
TAP	90	96	6
XTP	90	144	2
XTP	90	144	5
TAP	90	240	6
TAP	90	240	7
XTP	90	288	6
XTP	90	288	7
TAP	90	336	6
TAP	90	336	7
TAP	90	360	0
TAP	90	360	5
STR	91	0	1
SCR	91	0	1	96	48	4
STR	91	0	4
SI_	91	0	4	96	48	0
STR	91	96	1
SI_	91	96	1	96	48	5
TAP	91	96	4
TAP	91	192	1
STR	91	192	6
SI_	91	192	6	96	48	2
TAP	91	240	7
STR	91	288	0
SI_	91	288	0	96	48	3
TAP	91	288	6
TAP	91	336	7
TAP	92	0	0
XTP	92	0	4
XTP	92	48	5
XTP	92	96	4
TAP	92	96	6
TAP	92	144	3
TAP	92	192	2
TAP	92	192	4
TAP	92	240	1
TAP	92	264	3
STR	92	288	0
SI_	92	288	0	96	48	4
TAP	92	312	6
TAP	92	336	7
TAP	92	360	5
STR	93	0	0
SI_	93	0	0	96	48	5
SCR	93	0	0	96	48	3
STR	93	96	0
SF_	93	96	0	96	48	4
TAP	93	192	0
TAP	93	288	2
TAP	93	288	6
BRK	93	336	2
BRK	93	336	6
TAP	94	48	1
TAP	94	72	0
TAP	94	96	1
TAP	94	144	4
TAP	94	168	3
TAP	94	192	4
TAP	94	240	6
TAP	94	264	7
TAP	94	288	5
TAP	94	312	0
TAP	94	336	4
TAP	94	360	1
TTP	95	0	0	C	1	M1
HLD	98	0	3	144
HLD	98	0	4	144
TAP	98	192	3
TAP	98	192	4
TAP	98	288	3
TAP	98	288	4
TAP	99	0	4
TAP	99	0	5
TAP	99	96	4
TAP	99	96	5
TAP	99	192	3
TAP	99	192	4
TAP	99	288	3
TAP	99	288	4
TAP	100	0	2
TAP	100	0	3
TAP	100	96	2
TAP	100	96	3
TAP	100	192	3
TAP	100	192	4
TAP	100	288	3
TAP	100	288	4
TAP	101	0	5
TAP	101	48	5
TAP	101	96	4
TAP	101	144	4
TAP	101	192	3
TAP	101	240	3
TAP	101	288	2
TAP	101	288	5
TAP	101	336	2
TAP	101	336	5
HLD	102	0	2	144
HLD	102	0	5	144
TAP	102	192	3
TAP	102	192	4
BST	102	288	0
SI_	102	288	0	96	48	4
BRK	102	288	7
STR	103	0	0
SCR	103	0	0	96	48	3
TAP	103	48	6
TAP	103	72	5
STR	103	96	0
SCL	103	96	0	96	48	5
TAP	103	144	5
TAP	103	168	4
STR	103	192	0
SCR	103	192	0	96	48	3
TAP	103	240	4
TAP	103	264	3
STR	103	288	0
SI_	103	288	0	96	48	4
TAP	103	336	5
TAP	103	360	4
STR	104	0	0
SCR	104	0	0	96	48	3
TAP	104	48	6
TAP	104	72	5
STR	104	96	0
SI_	104	96	0	96	48	4
STR	104	144	6
SI_	104	144	6	96	48	2
XTP	104	192	0
XTP	104	240	6
XTP	104	288	7
XTP	104	360	0
XTP	104	360	4
XST	105	0	0
SI_	105	0	0	96	48	3
XST	105	0	4
SI_	105	0	4	96	48	7
STR	105	96	0
SCL	105	96	0	96	48	5
STR	105	192	0
SCR	105	192	0	96	48	3
TAP	105	192	2
TAP	105	288	0
XTP	105	288	6
TAP	105	336	6
BRK	106	0	4
BRK	106	0	7
TAP	106	48	2
TAP	106	72	3
TAP	106	96	1
BRK	106	144	0
BRK	106	144	3
TAP	106	192	5
TAP	106	216	4
TAP	106	240	6
STR	106	288	7
SI_	106	288	7	96	48	3
TAP	106	312	0
TAP	106	336	7
TAP	106	360	0
STR	107	0	7
SCL	107	0	7	96	48	4
TAP	107	48	1
TAP	107	72	2
STR	107	96	7
SCR	107	96	7	96	48	2
TAP	107	144	2
TAP	107	168	3
STR	107	192	7
SI_	107	192	7	96	48	4
STR	107	240	3
SI_	107	240	3	96	48	0
TAP	107	264	4
XTP	107	288	7
XTP	107	336	3
XST	108	0	7
SF_	108	0	7	96	48	3
TAP	108	96	7
XTP	108	192	1
TAP	108	192	5
TAP	108	240	1
XTP	108	240	5
XTP	108	288	1
TAP	108	288	5
TAP	108	336	2
TAP	108	360	3
STR	109	0	2
SI_	109	0	2	96	48	6
STR	109	48	5
SI_	109	48	5	96	48	3
STR	109	96	2
SCL	109	96	2	96	48	7
TAP	109	144	5
TAP	109	192	2
XTP	109	240	6
XTP	109	256	5
XTP	109	272	4
BRK	109	288	3
TAP	110	0	1
TAP	110	24	0
TAP	110	48	1
TAP	110	72	0
TAP	110	96	1
TAP	110	120	0
TTP	110	144	2	E	0	M1
TTP	110	156	2	B	0	M1
TTP	110	168	3	B	0	M1
TTP	110	180	4	E	0	M1
TTP	110	192	6	E	0	M1
TTP	110	204	5	B	0	M1
TTP	110	216	4	B	0	M1
TTP	110	228	4	E	0	M1
XTP	110	240	0
XTP	110	252	1
XTP	110	264	2
XTP	110	276	3
BST	110	288	7
SCL	110	288	7	96	288	0
TTP	111	0	0	C	1	M1
XHO	112	0	0	96
BRK	112	0	1
TAP	112	12	2
TAP	112	24	3
TAP	112	36	4
TAP	112	48	5
TAP	112	60	6
BRK	112	144	6
XHO	112	144	7	96
TAP	112	156	5
TAP	112	168	4
TAP	112	180	3
TAP	112	192	2
TAP	112	204	1
BRK	112	288	0
BRK	112	288	4
BRK	112	336	2
BRK	112	336	6

T_REC_TAP	463
T_REC_BRK	42
T_REC_XTP	53
T_REC_HLD	62
T_REC_XHO	12
T_REC_STR	84
T_REC_BST	15
T_REC_XST	14
T_REC_TTP	24
T_REC_THO	4
T_REC_SLD	115
T_REC_ALL	888
T_NUM_TAP	638
T_NUM_BRK	57
T_NUM_HLD	78
T_NUM_SLD	115
T_NUM_ALL	888
T_JUDGE_TAP	695
T_JUDGE_HLD	196
T_JUDGE_SLD	115
T_JUDGE_ALL	1006
TTM_EACHPAIRS	181
TTM_SCR_TAP	319000
TTM_SCR_BRK	148200
TTM_SCR_HLD	78000
TTM_SCR_SLD	172500
TTM_SCR_ALL	717700
TTM_SCR_S	690650
TTM_SCR_SS	712000
TTM_RAT_ACV	10080

