VERSION	0.00.00	1.03.00
FES_MODE	0
BPM_DEF	205.000	205.000	205.000	205.000
MET_DEF	4	4
RESOLUTION	384
CLK_DEF	384
COMPATIBLE_CODE	MA2

BPM	0	0	205.000
MET	0	0	4	4

THO	3	0	0	768	C	0	M1
TTP	3	0	1	B	0	M1
TTP	3	0	2	B	0	M1
TTP	3	0	5	B	0	M1
TTP	3	0	6	B	0	M1
XST	5	0	0
SCR	5	0	0	96	576	7
HLD	7	0	1	384
HLD	8	0	3	384
HLD	9	0	4	384
HLD	10	0	6	384
TAP	11	0	3
TAP	11	96	3
TAP	11	192	2
TAP	11	192	3
TAP	11	288	2
TAP	11	288	3
TAP	12	0	4
TAP	12	0	5
TAP	12	96	4
TAP	12	96	5
TAP	12	192	2
TAP	12	240	2
TAP	12	288	4
TAP	12	336	4
TAP	13	0	4
TAP	13	0	5
TAP	13	96	4
TAP	13	96	5
TAP	13	192	2
TAP	13	192	3
TAP	13	288	2
TAP	13	288	3
TAP	14	0	5
TAP	14	96	3
HLD	14	96	4	96
STR	14	192	2
SI_	14	192	2	96	48	7
TAP	15	0	5
TAP	15	48	5
TAP	15	96	4
TAP	15	144	4
TAP	15	192	3
TAP	15	240	3
TAP	15	288	2
TAP	15	336	2
TAP	16	0	1
TAP	16	48	1
TAP	16	96	0
TAP	16	144	0
TAP	16	192	7
TAP	16	216	0
TAP	16	240	7
TAP	16	264	0
TAP	16	288	7
TTP	17	0	0	C	1	M1
TTP	17	0	1	B	0	M1
TTP	17	0	2	B	0	M1
TTP	17	0	5	B	0	M1
TTP	17	0	6	B	0	M1
TAP	18	0	3
TAP	18	48	3
TAP	18	144	4
STR	18	192	4
SI_	18	192	4	96	48	0
XHO	19	0	1	672
XHO	19	0	7	672
TTP	21	0	0	E	0	M1
TTP	21	48	1	E	0	M1
TTP	21	96	2	E	0	M1
TTP	21	144	3	E	0	M1
TTP	21	192	4	E	0	M1
TTP	21	240	5	E	0	M1
TTP	21	288	6	E	0	M1
TTP	21	336	7	E	0	M1
TAP	22	0	1
TAP	22	96	2
TAP	22	192	3
BRK	22	288	0
BRK	22	288	6
XHO	23	0	2	672
XTP	23	0	7
TAP	23	96	1
TAP	23	192	7
TAP	23	288	3
TAP	23	336	3
TAP	24	48	0
TAP	24	96	0
TAP	24	192	6
TAP	24	240	6
TAP	24	288	6
TAP	25	0	0
HLD	25	0	5	96
STR	25	96	1
SI_	25	96	1	96	48	4
STR	25	192	7
SI_	25	192	7	96	48	3
TAP	26	0	2
TAP	26	96	1
TAP	26	96	2
TAP	26	192	5
TAP	26	192	6
BRK	26	288	2
BRK	26	288	7
XTP	27	0	0
XHO	27	0	5	672
TAP	27	96	6
TAP	27	192	0
TAP	27	288	4
TAP	27	336	4
TAP	28	48	7
TAP	28	96	7
TAP	28	192	1
TAP	28	240	1
TAP	28	288	1
STR	29	0	3
SI_	29	0	3	96	48	7
TAP	29	0	4
STR	29	96	5
SI_	29	96	5	96	48	0
STR	29	192	2
SI_	29	192	2	96	48	7
XHO	30	0	0	288
XST	30	0	6
SCL	30	0	6	96	144	1
BRK	30	288	7
TAP	31	0	3
TAP	31	0	4
XTP	31	96	0
XHO	31	96	2	384
TAP	31	192	7
TAP	31	288	3
TAP	31	336	3
TAP	32	48	0
TAP	32	96	0
HLD	32	192	3	48
HLD	32	192	5	48
HLD	32	288	2	48
HLD	32	288	4	48
TAP	33	0	7
TAP	33	48	7
TAP	33	96	1
TAP	33	96	7
TAP	33	192	3
TAP	33	192	4
TAP	33	240	3
TAP	33	240	4
STR	33	336	6
SCR	33	336	6	96	144	3
HLD	33	336	7	240
BRK	34	288	0
BRK	34	288	5
XHO	35	0	2	672
XTP	35	0	7
TAP	35	96	1
TAP	35	192	7
TAP	35	288	3
TAP	35	336	3
TAP	36	48	0
TAP	36	96	0
TAP	36	192	6
TAP	36	240	6
TAP	36	288	6
TTP	37	0	6	B	0	M1
TTP	37	0	7	B	0	M1
TTP	37	96	0	B	0	M1
TTP	37	96	1	B	0	M1
TTP	37	192	4	B	0	M1
TTP	37	192	5	B	0	M1
TTP	37	288	2	B	0	M1
TTP	37	288	3	B	0	M1
HLD	38	0	6	96
HLD	38	96	0	96
STR	38	192	7
SI_	38	192	7	96	48	3
HLD	39	0	1	96
HLD	39	0	4	96
TAP	39	144	1
TAP	39	144	4
TAP	39	240	0
TAP	39	240	3
BRK	39	288	0
BRK	39	288	3
HLD	40	0	1	72
HLD	40	72	3	72
TAP	40	144	5
TAP	40	240	6
TAP	40	240	7
BRK	40	288	0
BRK	40	288	5
HLD	41	0	3	96
HLD	41	0	6	96
TAP	41	144	3
TAP	41	144	6
TAP	41	240	4
TAP	41	240	7
BRK	41	288	4
BRK	41	288	7
HLD	42	0	6	72
HLD	42	72	4	72
STR	42	144	2
SLR	42	144	2	96	96	0
XHO	43	0	1	96
XHO	43	0	7	672
HLD	43	192	2	96
HLD	44	0	3	96
HLD	44	192	4	96
HLD	45	0	5	48
HLD	45	0	7	48
HLD	45	96	4	48
HLD	45	96	6	48
HLD	45	192	3	48
HLD	45	192	5	48
HLD	45	288	2	48
HLD	45	288	4	48
TAP	46	0	1
TAP	46	0	3
TAP	46	48	0
TAP	46	96	0
TAP	46	144	0
STR	46	192	0
SI_	46	192	0	96	48	4
BRK	46	288	7
STR	47	0	3
SI_	47	0	3	96	48	7
TAP	47	0	6
TAP	47	96	4
STR	47	192	3
SI_	47	192	3	96	48	7
TAP	47	192	6
TAP	47	288	4
STR	48	0	3
SI_	48	0	3	96	48	7
TAP	48	0	6
TAP	48	96	4
TAP	48	192	0
TAP	48	192	6
TAP	48	240	0
TAP	48	240	6
BRK	48	288	0
BRK	48	288	6
TAP	49	0	1
STR	49	0	4
SI_	49	0	4	96	48	0
TAP	49	96	3
TAP	49	192	1
STR	49	192	4
SI_	49	192	4	96	48	0
TAP	49	288	3
TAP	50	0	1
TAP	50	0	7
TTP	50	96	6	E	0	M1
TTP	50	144	0	C	0	M1
TTP	50	192	2	E	0	M1
BRK	50	288	0
BRK	50	288	7
STR	51	0	3
SI_	51	0	3	96	48	7
TAP	51	0	6
TAP	51	96	4
TAP	51	192	0
TAP	51	192	6
TAP	51	240	0
TAP	51	240	6
TAP	51	288	0
TAP	51	288	6
TAP	52	0	2
STR	52	0	7
SI_	52	0	7	96	48	3
TAP	52	96	0
TAP	52	192	2
TAP	52	192	4
TAP	52	240	2
TAP	52	240	4
TAP	52	288	2
TAP	52	288	4
TAP	53	0	1
STR	53	0	4
SI_	53	0	4	96	48	0
TAP	53	96	3
TAP	53	192	1
TAP	53	192	7
TAP	53	240	1
TAP	53	240	7
TAP	53	288	1
TAP	53	288	7
XTP	54	0	0
XTP	54	0	6
XTP	54	64	4
XTP	54	64	5
XTP	54	128	2
XTP	54	128	3
XTP	54	192	1
XTP	54	192	7
XTP	54	256	2
XTP	54	256	3
XTP	54	320	4
XTP	54	320	5
XHO	55	0	0	768
BST	55	0	6
SCR	55	0	6	96	576	5
HLD	57	0	4	384
HLD	58	0	3	384
STR	59	0	2
SCL	59	0	2	96	672	5
THO	61	0	0	768	C	0	M1
TAP	63	0	7
TAP	63	96	6
TAP	63	192	5
HLD	63	240	5	96
TAP	63	336	3
TAP	64	0	4
HLD	64	48	1	144
TAP	64	144	3
STR	64	192	3
SI_	64	192	3	96	48	7
TAP	65	0	0
TAP	65	96	1
TAP	65	192	2
HLD	65	240	2	96
TAP	65	336	4
TAP	66	0	3
TAP	66	0	5
TAP	66	96	2
TAP	66	96	4
STR	66	144	2
SLR	66	144	2	96	96	0
TAP	66	144	4
TAP	67	0	7
TAP	67	96	6
TAP	67	192	5
HLD	67	240	5	96
TAP	67	336	3
TAP	68	0	4
HLD	68	48	1	144
TAP	68	144	3
STR	68	192	3
SI_	68	192	3	96	48	7
TAP	69	0	0
TAP	69	0	1
TAP	69	96	2
TAP	69	96	3
TAP	69	192	4
TAP	69	192	5
TAP	69	288	6
TAP	69	288	7
XST	70	0	0
SLR	70	0	0	96	96	6
XTP	70	0	1
TAP	70	240	0
TAP	70	240	7
TAP	70	288	1
TAP	70	288	6
HLD	71	0	4	672
TAP	71	0	5
TAP	71	96	5
TAP	71	192	5
TAP	71	288	5
TAP	72	0	3
TAP	72	96	3
TAP	72	192	3
HLD	72	288	3	672
TAP	73	0	2
TAP	73	96	2
TAP	73	192	2
TAP	73	288	2
TAP	74	0	4
STR	74	96	4
SCL	74	96	4	96	48	1
TTP	75	0	0	E	0	M1
TTP	75	0	1	E	0	M1
TTP	75	96	2	E	0	M1
TTP	75	96	7	E	0	M1
TTP	75	192	3	E	0	M1
TTP	75	192	6	E	0	M1
TTP	75	288	4	E	0	M1
TTP	75	288	5	E	0	M1
TAP	76	0	2
TAP	76	0	3
STR	76	96	4
SSL	76	96	4	96	96	0
TAP	76	96	5
THO	77	0	0	384	C	0	M1
STR	78	0	7
SCL	78	0	7	96	96	2
BRK	78	288	0
BRK	78	288	5
XST	79	0	1
SI_	79	0	1	96	48	4
STR	79	96	0
SI_	79	96	0	96	48	5
TAP	79	192	2
HLD	79	240	2	192
TAP	79	336	7
TAP	80	0	6
STR	80	48	5
SI_	80	48	5	96	48	1
TAP	80	144	7
STR	80	192	7
SI_	80	192	7	96	48	3
STR	81	0	6
SI_	81	0	6	96	48	3
STR	81	96	7
SI_	81	96	7	96	48	2
TAP	81	192	5
HLD	81	240	5	144
TAP	81	336	0
TAP	82	0	0
TAP	82	96	2
TAP	82	96	7
TAP	82	144	2
TAP	82	144	7
TAP	82	240	3
TAP	82	240	4
TAP	82	288	1
TAP	82	288	6
STR	83	0	1
SI_	83	0	1	96	48	4
STR	83	96	0
SI_	83	96	0	96	48	5
TAP	83	192	2
HLD	83	240	2	192
TAP	83	336	7
TAP	84	0	6
STR	84	48	5
SI_	84	48	5	96	48	1
TAP	84	144	7
STR	84	192	7
SI_	84	192	7	96	48	3
TAP	85	0	0
TAP	85	0	1
TAP	85	96	4
TAP	85	96	5
TAP	85	144	4
TAP	85	144	5
TAP	85	192	3
TAP	85	192	6
TAP	85	288	2
TAP	85	288	3
BST	85	336	1
SSR	85	336	1	96	144	5
HLD	85	336	4	240
BRK	86	288	0
BRK	86	288	7
XST	87	0	1
SI_	87	0	1	96	48	4
STR	87	96	3
SI_	87	96	3	96	48	6
TAP	87	192	7
HLD	87	240	0	192
TAP	87	336	2
TAP	88	0	3
STR	88	48	4
SI_	88	48	4	96	48	0
TAP	88	144	7
STR	88	192	7
SI_	88	192	7	96	48	3
STR	89	0	6
SI_	89	0	6	96	48	3
STR	89	96	4
SI_	89	96	4	96	48	1
TAP	89	192	0
HLD	89	240	7	144
TAP	89	336	4
TAP	90	0	4
TAP	90	96	2
TAP	90	96	3
TAP	90	144	1
TAP	90	144	4
TAP	90	240	3
TAP	90	240	4
TAP	90	288	1
TAP	90	288	6
STR	91	0	1
SI_	91	0	1	96	48	4
STR	91	96	3
SI_	91	96	3	96	48	6
TAP	91	192	7
HLD	91	240	0	192
TAP	91	336	2
TAP	92	0	3
STR	92	48	4
SI_	92	48	4	96	48	0
TAP	92	144	7
STR	92	192	7
SI_	92	192	7	96	48	3
TAP	93	0	0
TAP	93	0	6
TAP	93	96	5
TAP	93	144	4
TAP	93	192	3
TAP	93	192	6
TAP	93	288	2
TAP	93	288	3
BST	93	336	1
SSR	93	336	1	96	144	5
HLD	93	336	4	240
BRK	94	288	0
BRK	94	288	7
THO	95	0	0	1152	C	1	M1
TTP	95	0	1	B	0	M1
TTP	95	0	2	B	0	M1
TTP	95	0	5	B	0	M1
TTP	95	0	6	B	0	M1
TAP	99	0	0
TAP	99	0	1
TAP	99	96	0
TAP	99	96	2
TAP	99	192	0
TAP	99	192	3
TAP	99	288	0
TAP	99	288	3
TAP	100	0	6
TAP	100	0	7
TAP	100	96	5
TAP	100	96	7
TAP	100	192	4
TAP	100	192	7
TAP	100	288	4
TAP	100	288	7
TTP	101	0	0	E	0	M1
TTP	101	48	1	E	0	M1
TTP	101	96	2	E	0	M1
TTP	101	144	3	E	0	M1
TTP	101	192	4	E	0	M1
TTP	101	240	5	E	0	M1
TTP	101	288	6	E	0	M1
TTP	101	336	7	E	0	M1
THO	102	0	0	192	C	0	M1
BRK	102	288	1
BRK	102	288	6
XST	103	0	0
SI_	103	0	0	96	48	5
STR	103	96	3
SI_	103	96	3	96	48	7
TAP	103	192	2
TAP	103	240	2
TAP	103	336	1
TAP	104	0	0
TAP	104	0	2
TAP	104	48	0
TAP	104	48	2
TAP	104	144	3
TAP	104	144	4
TAP	104	192	3
TAP	104	192	4
TAP	104	240	5
TAP	104	264	4
TAP	104	288	5
TAP	104	336	2
TAP	104	360	3
XST	105	0	2
SI_	105	0	2	96	48	6
STR	105	96	7
SI_	105	96	7	96	48	3
TAP	105	192	0
TAP	105	240	0
TAP	105	336	1
STR	106	0	0
SCL	106	0	0	96	48	5
TAP	106	0	2
TAP	106	96	3
STR	106	144	3
SI_	106	144	3	96	48	7
TAP	106	240	4
BRK	106	288	6
XST	107	0	7
SI_	107	0	7	96	48	2
STR	107	96	4
SI_	107	96	4	96	48	0
TAP	107	192	3
TAP	107	240	3
TAP	107	336	6
TAP	108	0	5
TAP	108	0	7
TAP	108	48	5
TAP	108	48	7
TAP	108	144	3
TAP	108	144	4
TAP	108	192	3
TAP	108	192	4
TAP	108	240	2
TAP	108	264	3
TAP	108	288	2
TAP	108	336	5
TAP	108	360	4
XHO	109	0	6	288
TAP	109	96	7
TAP	109	144	7
TAP	109	192	0
TAP	109	240	0
STR	109	288	1
SI_	109	288	1	96	48	7
STR	110	0	6
SI_	110	0	6	96	48	2
STR	110	96	3
SI_	110	96	3	96	48	5
BRK	110	288	0
BST	110	288	6
SI_	110	288	6	96	48	0
STR	111	0	1
SI_	111	0	1	96	48	5
STR	111	96	4
SI_	111	96	4	96	48	2
BST	111	288	1
SI_	111	288	1	96	48	7
BRK	111	288	7
STR	112	0	6
SI_	112	0	6	96	48	2
STR	112	96	3
SI_	112	96	3	96	48	5
BRK	112	288	0
BRK	112	288	4
BRK	112	336	2
BRK	112	336	6

T_REC_TAP	314
T_REC_BRK	33
T_REC_XTP	17
T_REC_HLD	49
T_REC_XHO	11
T_REC_STR	56
T_REC_BST	5
T_REC_XST	8
T_REC_TTP	48
T_REC_THO	5
T_REC_SLD	69
T_REC_ALL	615
T_NUM_TAP	443
T_NUM_BRK	38
T_NUM_HLD	65
T_NUM_SLD	69
T_NUM_ALL	615
T_JUDGE_TAP	481
T_JUDGE_HLD	357
T_JUDGE_SLD	69
T_JUDGE_ALL	907
TTM_EACHPAIRS	130
TTM_SCR_TAP	221500
TTM_SCR_BRK	98800
TTM_SCR_HLD	65000
TTM_SCR_SLD	103500
TTM_SCR_ALL	488800
TTM_SCR_S	470450
TTM_SCR_SS	485000
TTM_RAT_ACV	10078

