VERSION	0.00.00	1.03.00
FES_MODE	0
BPM_DEF	205.000	205.000	205.000	205.000
MET_DEF	4	4
RESOLUTION	384
CLK_DEF	384
COMPATIBLE_CODE	MA2

BPM	0	0	205.000
MET	0	0	4	4

THO	3	0	0	1152	C	0	L1
HLD	7	0	6	384
HLD	8	0	7	384
HLD	9	0	0	384
TAP	10	0	1
TAP	10	192	2
TAP	10	192	3
TAP	11	0	5
TAP	11	96	5
TAP	11	192	4
TAP	12	0	2
TAP	12	96	2
TAP	12	192	3
TAP	13	0	5
TAP	13	96	5
TAP	13	192	4
TAP	14	0	3
TAP	14	96	3
XTP	14	192	2
XTP	14	192	4
TAP	15	0	1
TAP	15	96	0
TAP	15	192	7
TAP	15	288	6
TAP	16	0	5
TAP	16	48	5
TAP	16	96	5
TAP	16	192	3
TAP	16	240	3
TAP	16	288	3
BST	17	0	3
SXR	17	0	3	96	480	0
BST	17	0	4
SXL	17	0	4	96	480	7
XST	19	0	6
SXL	19	0	6	96	480	3
TAP	21	0	2
TAP	21	48	2
TAP	21	96	2
TAP	21	192	4
TAP	21	240	4
TAP	21	288	4
TAP	22	0	3
TAP	22	96	3
TAP	22	96	4
BRK	22	192	2
BRK	22	192	5
TAP	23	0	6
TAP	23	96	6
TAP	23	192	6
TAP	23	192	7
TAP	23	288	6
TAP	23	288	7
TAP	24	0	5
TAP	24	96	4
TAP	24	192	3
TAP	24	192	5
HLD	25	0	2	96
HLD	25	0	4	96
HLD	25	192	3	96
HLD	25	192	5	96
TAP	26	0	2
TAP	26	0	4
TAP	26	96	2
TAP	26	96	4
TAP	26	192	1
TAP	26	192	5
TAP	27	0	1
TAP	27	96	1
TAP	27	192	0
TAP	27	192	1
TAP	27	288	0
TAP	27	288	1
TAP	28	0	2
TAP	28	96	3
TAP	28	192	2
TAP	28	192	4
XHO	29	0	3	96
XHO	29	0	5	96
HLD	29	192	2	96
HLD	29	192	4	96
TAP	30	0	3
TAP	30	0	5
TAP	30	96	2
TAP	30	96	6
BRK	30	192	1
BRK	30	192	7
TAP	31	0	2
TAP	31	96	2
TAP	31	192	2
TAP	31	192	3
TAP	31	288	2
TAP	31	288	3
TAP	32	0	5
TAP	32	96	5
TAP	32	192	4
TAP	32	192	5
TAP	32	288	4
TAP	32	288	5
TAP	33	0	6
TAP	33	96	6
TAP	33	192	7
TAP	33	288	7
TAP	34	0	0
TAP	34	96	0
TAP	34	192	1
TAP	34	192	7
TAP	35	0	1
TAP	35	96	1
TAP	35	192	0
TAP	35	192	1
TAP	35	288	0
TAP	35	288	1
TAP	36	0	6
TAP	36	96	6
TAP	36	192	6
TAP	36	192	7
TAP	36	288	6
STR	36	288	7
SCR	36	288	7	96	192	3
TAP	38	0	3
TAP	38	0	4
TAP	38	96	3
TAP	38	96	4
TAP	38	192	2
TAP	38	192	5
TAP	39	0	6
TAP	39	96	6
TAP	39	192	6
BRK	39	288	6
BRK	39	288	7
TAP	40	0	1
TAP	40	96	1
TAP	40	192	1
BRK	40	288	0
BRK	40	288	1
TAP	41	0	2
TAP	41	96	2
TAP	41	192	2
BRK	41	288	1
BRK	41	288	3
TAP	42	0	5
TAP	42	96	5
TAP	42	192	4
TAP	42	192	6
XTP	43	0	6
XTP	43	0	7
XTP	43	192	0
XTP	43	192	1
XTP	44	0	2
XTP	44	0	3
XTP	44	192	4
XTP	44	192	5
TAP	45	0	6
TAP	45	0	7
TAP	45	96	0
TAP	45	96	5
TAP	45	192	1
TAP	45	192	4
STR	45	288	2
SV_	45	288	2	96	192	7
TAP	45	288	3
TTP	47	0	6	E	0	L1
TTP	47	96	5	B	0	L1
TTP	47	192	4	B	0	L1
TTP	48	0	2	E	0	L1
TTP	48	96	2	B	0	L1
TTP	48	192	3	B	0	L1
TTP	49	0	6	B	0	L1
TTP	49	96	5	B	0	L1
TTP	49	192	5	E	0	L1
TTP	50	0	0	C	1	L1
XTP	51	0	7
XTP	51	96	7
TAP	51	192	0
TAP	51	288	1
TAP	52	0	2
TAP	52	96	3
TAP	52	192	4
TAP	52	288	5
TAP	53	0	3
TAP	53	48	3
TAP	53	96	3
TAP	53	192	4
TAP	53	240	4
TAP	53	288	4
XST	54	0	3
SI_	54	0	3	96	192	0
XST	54	0	4
SI_	54	0	4	96	192	7
TTP	55	0	0	C	1	L1
STR	57	0	7
SCL	57	0	7	96	384	2
STR	59	0	0
SCR	59	0	0	96	384	5
STR	61	0	6
SXR	61	0	6	96	480	2
HLD	63	0	1	384
HLD	64	0	0	384
HLD	65	0	7	384
XTP	66	0	6
XTP	66	192	5
XTP	66	288	5
HLD	67	0	5	384
HLD	68	0	4	384
HLD	69	0	3	384
TAP	70	0	2
TAP	70	192	3
TAP	70	192	4
TTP	71	0	2	B	0	L1
TTP	71	192	1	B	0	L1
TTP	72	0	0	B	0	L1
TTP	72	192	7	B	0	L1
TTP	73	0	6	B	0	L1
TTP	73	192	5	B	0	L1
TTP	74	0	0	C	1	L1
XTP	75	0	0
XTP	75	0	7
TAP	75	96	0
TAP	75	96	7
TAP	75	192	1
TAP	75	192	6
TAP	75	288	2
TAP	75	288	5
TAP	76	0	4
TAP	76	48	4
TAP	76	96	4
TAP	76	192	3
TAP	76	240	3
TAP	76	288	3
TTP	77	0	0	C	1	L1
XTP	78	0	0
XTP	78	0	7
TAP	78	96	0
TAP	78	96	7
TAP	78	192	1
TAP	78	192	6
TAP	79	0	5
TAP	79	96	5
TAP	79	192	4
TAP	79	192	5
TAP	79	288	3
TAP	79	288	6
TAP	80	0	2
TAP	80	96	2
TAP	80	192	2
TAP	80	192	3
TAP	80	288	1
TAP	80	288	4
TAP	81	0	0
TAP	81	96	0
TAP	81	192	7
TAP	81	288	7
TAP	82	0	0
TAP	82	0	7
TAP	82	96	0
TAP	82	96	7
TAP	82	192	1
TAP	82	192	6
TAP	83	0	2
TAP	83	96	2
TAP	83	192	2
TAP	83	192	3
TAP	83	288	1
TAP	83	288	4
TAP	84	0	5
TAP	84	96	5
TAP	84	192	4
TAP	84	192	5
TAP	84	288	3
TAP	84	288	6
TAP	85	0	7
TAP	85	96	0
TAP	85	96	7
TAP	85	192	1
TAP	85	192	6
STR	85	288	2
SV_	85	288	2	96	192	0
STR	85	288	5
SV_	85	288	5	96	192	7
TAP	87	0	6
TAP	87	96	6
TAP	87	192	6
TAP	87	192	7
TAP	87	288	0
TAP	87	288	5
TAP	88	0	1
TAP	88	96	1
TAP	88	192	0
TAP	88	192	1
TAP	88	288	2
TAP	88	288	7
TAP	89	0	3
TAP	89	96	4
TAP	89	192	5
TAP	89	288	6
TAP	90	0	7
TAP	90	48	7
TAP	90	96	7
TAP	90	192	0
TAP	90	240	0
TAP	90	288	0
TAP	91	0	1
TAP	91	96	1
TAP	91	192	0
TAP	91	192	1
TAP	91	288	2
TAP	91	288	7
TAP	92	0	6
TAP	92	96	6
TAP	92	192	6
TAP	92	192	7
TAP	92	288	0
TAP	92	288	5
TAP	93	0	4
TAP	93	96	3
TAP	93	96	5
TAP	93	192	2
TAP	93	288	1
TAP	93	288	3
TAP	94	0	0
TAP	94	96	0
TAP	94	96	7
BRK	94	192	1
BRK	94	192	6
HLD	95	0	2	192
TAP	95	192	3
HLD	96	0	5	192
TAP	96	192	4
HLD	97	0	2	192
TAP	97	192	3
HLD	98	0	4	96
HLD	98	0	5	96
TAP	98	192	4
TAP	98	192	5
TAP	99	0	6
TAP	99	96	7
TAP	99	192	0
TAP	99	288	1
TAP	100	0	2
TAP	100	96	3
TAP	100	192	4
TAP	100	288	5
TAP	101	0	3
TAP	101	48	3
TAP	101	96	3
TAP	101	192	4
TAP	101	240	4
STR	101	288	4
SUR	101	288	4	96	240	6
XTP	103	0	7
TAP	103	96	6
TAP	103	96	7
TAP	103	192	5
TAP	103	288	4
TAP	103	288	5
TAP	104	0	2
TAP	104	96	2
TAP	104	96	3
TAP	104	192	1
TAP	104	288	0
TAP	104	288	7
TAP	105	0	6
TAP	105	96	3
TAP	105	96	5
TAP	105	192	2
TAP	105	288	1
TAP	105	288	3
TAP	106	0	0
TAP	106	48	0
TAP	106	96	0
TAP	106	192	7
TAP	106	240	7
TAP	106	288	7
TAP	107	0	1
TAP	107	96	0
TAP	107	96	1
TAP	107	192	2
TAP	107	288	2
TAP	107	288	3
TAP	108	0	5
TAP	108	96	4
TAP	108	96	5
TAP	108	192	6
TAP	108	288	0
TAP	108	288	7
TAP	109	0	0
TAP	109	0	7
TAP	109	96	1
TAP	109	96	6
TAP	109	192	2
TAP	109	192	5
TAP	109	288	2
TAP	109	288	5
TAP	110	0	3
TAP	110	0	4
TAP	110	48	3
TAP	110	48	4
TAP	110	96	3
TAP	110	96	4
TAP	110	192	2
TAP	110	192	5
STR	110	288	1
SLR	110	288	1	96	240	0
STR	110	288	6
SLL	110	288	6	96	240	7
XHO	112	0	7	192
XTP	112	96	0
XTP	112	144	0
XTP	112	192	0
XTP	112	288	1
XTP	112	288	6
XTP	112	336	1
XTP	112	336	6

T_REC_TAP	302
T_REC_BRK	12
T_REC_XTP	27
T_REC_HLD	20
T_REC_XHO	3
T_REC_STR	10
T_REC_BST	2
T_REC_XST	3
T_REC_TTP	19
T_REC_THO	1
T_REC_SLD	15
T_REC_ALL	414
T_NUM_TAP	361
T_NUM_BRK	14
T_NUM_HLD	24
T_NUM_SLD	15
T_NUM_ALL	414
T_JUDGE_TAP	375
T_JUDGE_HLD	132
T_JUDGE_SLD	15
T_JUDGE_ALL	522
TTM_EACHPAIRS	103
TTM_SCR_TAP	180500
TTM_SCR_BRK	36400
TTM_SCR_HLD	24000
TTM_SCR_SLD	22500
TTM_SCR_ALL	263400
TTM_SCR_S	254150
TTM_SCR_SS	262000
TTM_RAT_ACV	10053

