VERSION	0.00.00	1.03.00
FES_MODE	0
BPM_DEF	205.000	205.000	205.000	205.000
MET_DEF	4	4
RESOLUTION	384
CLK_DEF	384
COMPATIBLE_CODE	MA2

BPM	0	0	205.000
MET	0	0	4	4

XTP	3	0	0
TAP	5	0	0
TAP	7	0	7
TAP	9	0	7
TAP	11	0	0
TAP	12	0	1
TAP	13	0	2
XTP	14	0	3
XTP	14	0	4
TAP	15	0	5
TAP	16	0	6
HLD	17	0	0	384
HLD	17	0	7	384
XHO	19	0	6	384
XHO	19	0	7	384
HLD	21	0	0	384
HLD	21	0	1	384
BRK	23	0	7
TAP	23	192	7
TAP	24	0	7
TAP	25	0	6
TAP	25	192	6
TAP	26	0	6
TAP	27	0	5
TAP	27	192	5
TAP	28	0	5
TAP	29	0	4
TAP	29	192	4
TAP	30	0	3
TAP	30	0	4
TAP	31	0	3
TAP	31	192	3
TAP	32	0	3
TAP	33	0	2
TAP	33	192	2
TAP	34	0	2
TAP	35	0	1
TAP	35	192	1
TAP	36	0	1
TAP	37	0	0
TAP	37	192	0
TAP	38	0	0
TAP	38	0	7
TTP	39	0	7	B	0	L1
TTP	40	0	0	B	0	L1
TTP	41	0	6	B	0	L1
TTP	42	0	1	B	0	L1
TTP	43	0	5	B	0	L1
TTP	44	0	2	B	0	L1
THO	45	0	0	384	C	0	L1
TAP	47	0	0
TAP	47	0	1
TAP	47	192	0
TAP	47	192	1
TAP	48	0	0
TAP	48	0	1
TAP	49	0	2
TAP	49	0	3
TAP	49	192	2
TAP	49	192	3
XTP	50	0	2
XTP	50	0	3
TAP	51	0	4
TAP	51	0	5
TAP	51	192	4
TAP	51	192	5
TAP	52	0	4
TAP	52	0	5
TAP	53	0	6
TAP	53	0	7
TAP	53	192	6
TAP	53	192	7
TAP	54	0	6
TAP	54	0	7
XHO	55	0	0	1152
HLD	59	0	6	384
HLD	59	0	7	384
HLD	61	0	0	384
HLD	61	0	1	384
STR	63	0	7
SI_	63	0	7	96	480	4
TAP	66	0	0
STR	67	0	0
SI_	67	0	0	96	480	3
TAP	70	0	7
STR	71	0	7
SI_	71	0	7	96	480	4
TAP	74	0	3
STR	75	0	3
SI_	75	0	3	96	480	0
BRK	78	0	7
TAP	79	0	7
TAP	79	96	7
TAP	79	192	7
TAP	80	0	6
TAP	80	192	6
TAP	81	0	5
TAP	81	96	5
TAP	81	192	5
TAP	82	0	3
TAP	82	0	4
TAP	82	192	3
TAP	82	192	4
TAP	83	0	3
TAP	83	96	3
TAP	83	192	3
TAP	84	0	2
TAP	84	192	2
TAP	85	0	1
TAP	85	96	1
TAP	85	192	1
XTP	86	0	0
XTP	86	0	7
TAP	87	0	0
TAP	87	96	0
TAP	87	192	0
TAP	88	0	1
TAP	88	96	1
TAP	88	192	1
TAP	89	0	2
TAP	89	96	2
TAP	89	192	2
TAP	90	0	3
TAP	90	0	4
TAP	90	96	3
TAP	90	96	4
TAP	90	192	3
TAP	90	192	4
TAP	91	0	4
TAP	91	96	4
TAP	91	192	4
TAP	92	0	5
TAP	92	96	5
TAP	92	192	5
TAP	93	0	6
TAP	93	96	6
TAP	93	192	6
XTP	94	0	0
XTP	94	0	7
STR	95	0	0
SI_	95	0	0	96	480	4
TAP	98	0	7
STR	99	0	6
SI_	99	0	6	96	480	2
XTP	102	0	0
TAP	103	0	0
TAP	103	96	0
TAP	103	192	1
TAP	103	288	1
TAP	104	0	2
TAP	104	192	2
TAP	104	192	3
TAP	105	0	4
TAP	105	96	4
TAP	105	192	5
TAP	105	288	5
TAP	106	0	6
TAP	106	192	6
TAP	106	192	7
TAP	107	0	7
TAP	107	96	7
TAP	107	192	6
TAP	107	288	6
TAP	108	0	5
TAP	108	96	5
TAP	108	192	4
TAP	108	192	5
TAP	109	0	3
TAP	109	96	3
TAP	109	192	2
TAP	109	288	2
TAP	110	0	1
TAP	110	96	1
TAP	110	192	0
TAP	110	192	1
TAP	111	0	7
TAP	111	96	7
TAP	111	192	0
TAP	111	288	0
TAP	112	0	0
TAP	112	0	7
TAP	112	96	0
TAP	112	96	7
XHO	112	192	1	144
XHO	112	192	6	144

T_REC_TAP	141
T_REC_BRK	2
T_REC_XTP	10
T_REC_HLD	8
T_REC_XHO	5
T_REC_STR	6
T_REC_BST	0
T_REC_XST	0
T_REC_TTP	6
T_REC_THO	1
T_REC_SLD	6
T_REC_ALL	185
T_NUM_TAP	163
T_NUM_BRK	2
T_NUM_HLD	14
T_NUM_SLD	6
T_NUM_ALL	185
T_JUDGE_TAP	165
T_JUDGE_HLD	118
T_JUDGE_SLD	6
T_JUDGE_ALL	289
TTM_EACHPAIRS	34
TTM_SCR_TAP	81500
TTM_SCR_BRK	5200
TTM_SCR_HLD	14000
TTM_SCR_SLD	9000
TTM_SCR_ALL	109700
TTM_SCR_S	106250
TTM_SCR_SS	109500
TTM_RAT_ACV	10018

