VERSION	0.00.00	1.03.00
FES_MODE	0
BPM_DEF	176.000	176.000	176.000	176.000
MET_DEF	4	4
RESOLUTION	384
CLK_DEF	384
COMPATIBLE_CODE	MA2

BPM	0	0	176.000
MET	0	0	4	4

BRK	2	0	3
BST	2	0	7
SCR	2	0	7	96	576	6
TAP	2	12	2
TAP	2	12	6
TAP	2	24	1
TAP	2	24	5
TAP	2	36	0
HLD	2	36	4	732
STR	4	0	7
SCL	4	0	7	96	576	0
TTP	4	192	6	E	0	M1
TTP	5	0	0	E	0	M1
TTP	5	192	2	E	0	M1
HLD	6	0	3	192
TTP	6	144	7	E	0	M1
TTP	6	168	7	B	0	M1
TTP	6	192	0	B	0	M1
TAP	7	0	3
TAP	7	0	4
TAP	7	96	2
TAP	7	96	5
TAP	7	144	3
TAP	7	240	3
TAP	7	288	2
TAP	7	288	5
STR	8	0	0
SCR	8	0	0	96	576	7
TTP	8	192	2	E	0	M1
TTP	9	0	0	E	0	M1
TTP	9	192	6	E	0	M1
HLD	10	0	4	192
TTP	10	144	3	E	0	M1
TTP	10	168	3	B	0	M1
TTP	10	192	4	B	0	M1
TAP	11	0	0
TAP	11	0	7
TAP	11	96	1
TAP	11	96	6
TAP	11	144	7
TAP	11	240	7
TAP	11	288	1
TAP	11	288	6
HLD	12	0	3	576
TAP	12	0	5
TAP	12	144	2
TAP	12	192	2
TAP	12	240	2
TAP	12	288	2
TAP	12	336	2
TAP	13	0	2
TAP	13	48	2
TAP	13	96	2
TAP	13	144	2
HLD	13	192	1	96
HLD	13	288	4	96
TAP	14	0	0
STR	14	48	0
SLL	14	48	0	96	144	2
HLD	14	144	1	96
TAP	15	0	0
STR	15	48	0
SLL	15	48	0	96	144	2
HLD	15	144	3	96
TAP	16	0	1
HLD	16	0	4	576
TAP	16	144	5
TAP	16	192	5
TAP	16	240	5
TAP	16	288	5
TAP	16	336	5
TAP	17	0	5
TAP	17	48	5
TAP	17	96	5
TAP	17	144	5
HLD	17	192	6	96
HLD	17	288	3	96
TAP	18	0	7
STR	18	48	7
SLR	18	48	7	96	144	5
HLD	18	144	6	96
STR	19	0	3
SI_	19	0	3	96	48	1
STR	19	0	7
SI_	19	0	7	96	48	5
STR	19	96	7
SI_	19	96	7	96	48	3
TAP	19	192	7
BRK	19	288	1
BRK	19	288	5
TAP	20	0	0
TAP	20	0	6
TAP	20	48	0
TAP	20	48	6
TAP	20	64	5
TAP	20	80	4
TAP	20	96	3
TAP	20	144	1
TAP	20	144	7
TAP	20	192	1
STR	20	192	7
SCL	20	192	7	96	192	0
TAP	20	208	2
TAP	20	224	3
TAP	20	240	4
TTP	20	288	0	C	1	M1
TAP	21	192	5
TAP	21	216	4
TAP	21	240	5
TAP	21	288	3
TAP	21	288	6
TAP	22	0	1
TAP	22	0	7
TAP	22	48	1
TAP	22	48	7
TAP	22	64	2
TAP	22	80	3
TAP	22	96	4
TAP	22	144	0
TAP	22	144	6
STR	22	192	0
SCR	22	192	0	96	192	7
TAP	22	192	6
TAP	22	208	5
TAP	22	224	4
TAP	22	240	3
TTP	22	288	0	C	1	M1
TAP	23	192	2
TAP	23	216	3
TAP	23	240	2
TAP	23	288	1
STR	23	288	4
SI_	23	288	4	96	48	0
HLD	24	0	3	48
TAP	24	144	1
TAP	24	144	7
TAP	24	192	1
STR	24	192	7
SCR	24	192	7	96	192	6
TAP	24	208	2
TAP	24	224	3
TAP	24	240	4
TTP	24	288	0	C	1	M1
TAP	25	192	5
TAP	25	216	4
TAP	25	240	5
TAP	25	288	3
TAP	25	288	6
TAP	26	0	1
TAP	26	0	7
TAP	26	48	1
TAP	26	48	7
TAP	26	64	2
TAP	26	80	3
TAP	26	96	4
TAP	26	144	0
TAP	26	144	6
STR	26	192	0
SCL	26	192	0	96	192	1
TAP	26	192	6
TAP	26	208	5
TAP	26	224	4
TAP	26	240	3
TTP	26	288	0	C	1	M1
TAP	27	192	2
TAP	27	216	3
TAP	27	240	2
TAP	27	288	1
STR	27	288	4
SUR	27	288	4	96	672	5
TTP	28	0	2	E	0	M1
TTP	28	96	1	E	0	M1
TTP	28	192	0	E	0	M1
TTP	28	288	7	E	0	M1
TTP	29	0	6	E	0	M1
TTP	29	96	4	E	0	M1
TTP	29	192	3	E	0	M1
TTP	29	288	2	E	0	M1
TAP	30	0	0
THO	30	0	0	192	C	1	M1
TAP	30	48	0
TAP	30	96	0
TAP	30	144	0
TAP	30	192	0
TAP	30	240	0
TAP	30	288	0
TAP	30	336	0
TAP	31	0	0
TAP	31	24	7
TAP	31	48	0
TAP	31	72	7
TAP	31	96	1
TAP	31	120	6
TAP	31	144	1
TAP	31	168	6
TAP	31	192	2
TAP	31	216	5
TAP	31	240	3
TAP	31	264	4
BRK	31	288	0
STR	32	0	1
SLR	32	0	1	96	72	7
TAP	32	0	5
STR	32	72	7
SCL	32	72	7	96	120	1
XTP	32	144	5
XHO	32	192	5	96
TAP	32	336	6
TAP	32	360	7
STR	33	0	6
SLL	33	0	6	96	72	0
STR	33	72	0
SCR	33	72	0	96	120	6
XTP	33	144	2
XTP	33	192	2
TAP	33	288	0
TAP	34	0	2
TAP	34	0	7
TAP	34	48	5
TAP	34	72	4
TAP	34	120	2
TAP	34	144	3
TAP	34	168	1
TAP	34	192	3
TAP	34	240	0
TAP	34	264	7
TAP	34	312	5
TAP	34	336	4
TAP	34	360	6
TAP	35	0	4
TAP	35	48	7
TAP	35	72	0
TAP	35	120	2
TAP	35	144	3
HLD	35	192	1	48
HLD	35	192	4	48
HLD	35	264	3	48
HLD	35	264	6	48
TAP	35	336	0
TAP	35	336	5
TAP	36	0	1
HLD	36	0	7	72
HLD	36	72	3	72
TAP	36	144	6
TAP	36	168	4
TAP	36	192	5
TAP	36	216	3
TAP	36	240	4
TAP	36	264	2
TAP	36	288	3
TAP	36	312	1
TAP	36	336	2
TAP	36	360	0
HLD	37	0	1	72
HLD	37	72	7	72
HLD	37	144	4	48
TAP	37	192	1
TAP	37	216	3
TAP	37	240	2
TAP	37	264	4
TAP	37	288	3
TAP	37	312	5
TAP	37	336	4
TAP	37	360	6
TAP	38	0	5
TAP	38	48	0
TAP	38	72	1
TAP	38	120	3
TAP	38	144	2
TAP	38	192	1
TAP	38	192	4
TAP	38	240	7
TAP	38	264	6
TAP	38	312	4
TAP	38	336	5
TAP	39	0	3
TAP	39	0	6
TAP	39	48	0
TAP	39	72	7
STR	39	96	1
SI_	39	96	1	96	48	5
TAP	39	120	6
TAP	39	144	2
TAP	39	168	5
TAP	39	192	1
BRK	39	288	3
BRK	39	288	7
STR	40	0	1
SLR	40	0	1	96	72	7
TAP	40	0	5
STR	40	72	7
SCL	40	72	7	96	120	1
XTP	40	144	5
XHO	40	192	5	96
TAP	40	336	6
TAP	40	360	7
STR	41	0	6
SLL	41	0	6	96	72	0
STR	41	72	0
SCR	41	72	0	96	120	6
XTP	41	144	2
XTP	41	192	2
TAP	41	288	0
TAP	42	0	2
TAP	42	0	7
TAP	42	48	5
TAP	42	72	4
TAP	42	120	2
TAP	42	144	3
TAP	42	168	1
TAP	42	192	3
TAP	42	240	0
TAP	42	264	7
TAP	42	312	5
TAP	42	336	4
TAP	42	360	6
TAP	43	0	4
TAP	43	48	7
TAP	43	72	0
TAP	43	120	2
TAP	43	144	3
HLD	43	192	1	48
HLD	43	192	4	48
HLD	43	264	3	48
HLD	43	264	6	48
TAP	43	336	0
TAP	43	336	5
TAP	44	0	1
TAP	44	24	3
TAP	44	48	2
TAP	44	72	6
TAP	44	96	4
TAP	44	120	5
HLD	44	144	0	96
TAP	44	240	6
TAP	44	264	7
TAP	44	288	0
TAP	44	288	5
TAP	45	0	6
TAP	45	24	4
TAP	45	48	5
TAP	45	72	1
TAP	45	96	3
TAP	45	120	2
HLD	45	144	7	96
TAP	45	240	1
TAP	45	264	0
TAP	45	288	2
TAP	45	288	7
TAP	46	0	0
TAP	46	24	1
TAP	46	48	2
TAP	46	72	3
TAP	46	96	4
TAP	46	120	5
TAP	46	144	6
TAP	46	168	7
TAP	46	192	3
TAP	46	216	2
TAP	46	240	1
TAP	46	264	0
TAP	46	288	7
TAP	46	312	6
TAP	46	336	5
TAP	46	360	4
TAP	47	0	0
TAP	47	24	1
TAP	47	48	5
TAP	47	72	4
TAP	47	96	1
TAP	47	120	2
TAP	47	144	6
TAP	47	168	5
TAP	47	192	2
TAP	47	216	3
TAP	47	240	7
TAP	47	264	6
BRK	47	288	0
TAP	47	288	5
XST	48	0	1
SI_	48	0	1	96	48	4
HLD	48	0	7	48
HLD	48	96	7	48
XST	48	192	4
SI_	48	192	4	96	48	0
HLD	48	192	7	48
HLD	48	288	7	48
XST	49	0	0
SI_	49	0	0	96	48	5
HLD	49	0	7	48
HLD	49	96	7	48
XST	49	192	5
SI_	49	192	5	96	48	2
HLD	49	192	7	48
TAP	49	288	7
HLD	50	0	0	48
XST	50	0	6
SI_	50	0	6	96	48	3
HLD	50	96	0	48
HLD	50	192	0	48
XST	50	192	3
SI_	50	192	3	96	48	7
HLD	50	288	0	48
HLD	51	0	0	48
XST	51	0	7
SI_	51	0	7	96	48	2
HLD	51	96	0	48
HLD	51	192	0	48
XST	51	192	2
SI_	51	192	2	96	48	5
TAP	51	288	0
STR	52	0	1
SI_	52	0	1	96	48	5
TAP	52	0	7
STR	52	96	7
SCR	52	96	7	96	48	2
STR	52	192	4
SI_	52	192	4	96	48	7
TAP	52	288	4
TAP	53	0	0
STR	53	0	6
SI_	53	0	6	96	48	2
STR	53	96	0
SCL	53	96	0	96	48	5
STR	53	192	3
SI_	53	192	3	96	48	0
TAP	53	288	3
STR	54	0	7
SCL	54	0	7	96	48	4
STR	54	96	7
SCR	54	96	7	96	48	2
STR	54	192	3
SI_	54	192	3	96	48	6
STR	54	288	3
SI_	54	288	3	96	48	0
STR	55	0	7
SI_	55	0	7	96	48	3
XTP	55	96	0
TAP	55	96	7
TAP	55	192	1
TAP	55	216	0
TAP	55	240	1
TAP	55	264	0
TAP	55	288	2
TAP	55	288	7
HLD	56	0	3	48
XST	56	0	5
SI_	56	0	5	96	48	0
HLD	56	96	3	48
XST	56	192	0
SI_	56	192	0	96	48	4
HLD	56	192	3	48
HLD	56	288	3	48
HLD	57	0	3	48
XST	57	0	4
SI_	57	0	4	96	48	1
HLD	57	96	3	48
XST	57	192	1
SI_	57	192	1	96	48	6
HLD	57	192	3	48
TAP	57	288	3
XST	58	0	2
SI_	58	0	2	96	48	7
HLD	58	0	4	48
HLD	58	96	4	48
HLD	58	192	4	48
XST	58	192	7
SI_	58	192	7	96	48	3
HLD	58	288	4	48
XST	59	0	3
SI_	59	0	3	96	48	6
HLD	59	0	4	48
HLD	59	96	4	48
HLD	59	192	4	48
XST	59	192	6
SI_	59	192	6	96	48	1
TAP	59	288	4
TAP	60	0	3
STR	60	0	5
SI_	60	0	5	96	48	1
STR	60	96	3
SCR	60	96	3	96	48	6
STR	60	192	0
SI_	60	192	0	96	48	3
TAP	60	288	0
STR	61	0	2
SI_	61	0	2	96	48	6
TAP	61	0	4
STR	61	96	4
SCL	61	96	4	96	48	1
STR	61	192	7
SI_	61	192	7	96	48	4
TAP	61	288	7
STR	62	0	0
SI_	62	0	0	96	48	4
STR	62	96	0
SCL	62	96	0	96	48	5
STR	62	96	4
SCL	62	96	4	96	48	1
TAP	62	288	0
TAP	62	288	4
TAP	63	0	2
TAP	63	24	6
TAP	63	48	2
TAP	63	72	6
TAP	63	96	1
TAP	63	120	5
TAP	63	144	1
TAP	63	168	5
TAP	63	192	0
TAP	63	192	4
TAP	63	216	1
TAP	63	216	5
TAP	63	240	2
TAP	63	240	6
TAP	63	264	3
TAP	63	264	7
HLD	63	288	0	96
TAP	63	288	4
TTP	64	0	0	C	1	M1
TAP	66	0	2
STR	66	96	2
SCR	66	96	2	96	192	5
TTP	66	192	0	C	0	M1
TTP	67	96	3	B	0	M1
TTP	67	96	4	B	0	M1
TTP	67	192	5	B	0	M1
TTP	67	192	6	B	0	M1
TAP	68	0	2
STR	68	96	2
SCR	68	96	2	96	192	5
TTP	68	192	0	C	0	M1
TTP	69	96	3	B	0	M1
TTP	69	96	4	B	0	M1
TTP	69	192	5	B	0	M1
TTP	69	192	6	B	0	M1
TAP	70	0	2
STR	70	96	2
SCR	70	96	2	96	192	5
TTP	70	192	0	C	0	M1
TTP	71	96	3	B	0	M1
TTP	71	96	4	B	0	M1
TTP	71	192	5	B	0	M1
TTP	71	192	6	B	0	M1
TAP	72	0	2
STR	72	96	2
SI_	72	96	2	96	96	4
TTP	72	192	0	C	0	M1
HLD	73	0	7	96
TAP	73	96	0
TAP	73	144	0
TAP	73	192	6
TAP	73	240	7
TAP	73	288	5
TAP	73	336	1
TAP	74	0	2
TAP	74	0	4
TAP	74	96	3
STR	74	96	4
SCR	74	96	4	96	192	7
TTP	74	192	0	C	0	M1
TTP	75	96	5	B	0	M1
TTP	75	96	6	B	0	M1
TTP	75	192	1	B	0	M1
TTP	75	192	2	B	0	M1
TAP	76	0	4
TAP	76	96	3
STR	76	96	4
SCR	76	96	4	96	192	7
TTP	76	192	0	C	0	M1
TTP	77	96	5	B	0	M1
TTP	77	96	6	B	0	M1
TTP	77	192	1	B	0	M1
TTP	77	192	2	B	0	M1
TAP	78	0	4
TAP	78	96	3
STR	78	96	4
SCR	78	96	4	96	192	7
STR	78	192	3
SSR	78	192	3	96	1056	7
TTP	79	96	6	E	0	M1
TTP	79	192	2	E	0	M1
THO	80	192	0	576	C	1	M1
HLD	82	0	0	192
TAP	82	96	7
HLD	82	192	6	192
TAP	82	288	5
HLD	83	0	4	192
TAP	83	96	3
HLD	83	192	2	192
TAP	83	288	1
TAP	84	0	0
TAP	84	48	0
TAP	84	96	0
TAP	84	144	0
TAP	84	192	0
TAP	84	240	0
TAP	84	288	0
TAP	84	336	0
TAP	85	0	0
TAP	85	24	7
TAP	85	48	0
TAP	85	72	7
TAP	85	96	0
TAP	85	120	7
TAP	85	144	0
TAP	85	168	7
TAP	85	192	0
TAP	85	204	1
TAP	85	216	2
TAP	85	228	3
TAP	85	240	4
TAP	85	252	5
TAP	85	264	6
TAP	85	276	7
STR	85	288	0
SI_	85	288	0	96	48	4
TAP	85	288	4
BRK	86	0	0
TAP	86	0	7
TAP	86	240	3
TAP	86	264	4
TAP	86	288	2
TAP	86	288	5
TAP	87	0	2
TAP	87	0	7
STR	87	48	1
SCR	87	48	1	96	48	4
TAP	87	72	0
TAP	87	120	0
TAP	87	144	1
HLD	87	192	7	48
STR	87	240	5
SI_	87	240	5	96	48	0
TAP	87	264	6
TAP	87	312	6
TAP	87	336	5
HLD	88	0	4	48
STR	88	48	1
SCL	88	48	1	96	48	6
TAP	88	72	3
TAP	88	120	3
TAP	88	144	1
HLD	88	192	2	48
TAP	88	240	5
TAP	88	264	3
TAP	88	288	5
TAP	88	312	3
TAP	88	336	6
TAP	89	0	5
TAP	89	0	7
STR	89	48	6
SCL	89	48	6	96	48	3
TAP	89	72	7
TAP	89	120	7
TAP	89	144	6
HLD	89	192	0	48
STR	89	240	2
SI_	89	240	2	96	48	7
TAP	89	264	1
TAP	89	312	1
TAP	89	336	2
HLD	90	0	3	48
STR	90	48	6
SCR	90	48	6	96	48	1
TAP	90	72	4
TAP	90	120	4
TAP	90	144	6
HLD	90	192	5	48
TAP	90	240	2
TAP	90	264	4
TAP	90	288	2
TAP	90	312	4
TAP	90	336	1
TAP	91	0	0
TAP	91	0	2
TAP	91	48	1
STR	91	48	7
SUL	91	48	7	96	144	4
SUR	91	48	7	96	144	2
BRK	91	144	7
TAP	92	0	4
TAP	92	24	1
TAP	92	48	4
TAP	92	72	1
TAP	92	96	5
TAP	92	120	2
TAP	92	144	5
TAP	92	168	2
TAP	92	192	6
TAP	92	216	3
TAP	92	240	6
TAP	92	264	3
TAP	92	288	7
TAP	93	0	5
TAP	93	0	7
STR	93	48	0
SUL	93	48	0	96	144	5
SUR	93	48	0	96	144	3
TAP	93	48	6
BRK	93	144	0
TAP	94	0	3
TAP	94	24	6
TAP	94	48	3
TAP	94	72	6
TAP	94	96	2
TAP	94	120	5
TAP	94	144	2
TAP	94	168	5
TAP	94	192	1
TAP	94	216	4
TAP	94	240	1
TAP	94	264	4
TAP	94	288	0
TAP	95	0	1
TAP	95	0	5
STR	95	48	2
SCL	95	48	2	96	48	7
TAP	95	72	4
TAP	95	120	4
TAP	95	144	2
HLD	95	192	3	48
STR	95	240	6
SI_	95	240	6	96	48	3
TAP	95	264	4
TAP	95	312	4
TAP	95	336	6
HLD	96	0	7	48
STR	96	48	2
SCR	96	48	2	96	48	5
TAP	96	72	0
TAP	96	120	0
TAP	96	144	2
HLD	96	192	1	48
TAP	96	240	6
TAP	96	264	0
TAP	96	288	6
TAP	96	312	0
TAP	96	336	5
TAP	97	0	4
TAP	97	0	6
STR	97	48	5
SCR	97	48	5	96	48	0
TAP	97	72	3
TAP	97	120	3
TAP	97	144	5
HLD	97	192	4	48
STR	97	240	1
SI_	97	240	1	96	48	4
TAP	97	264	3
TAP	97	312	3
TAP	97	336	1
HLD	98	0	0	48
STR	98	48	5
SCL	98	48	5	96	48	2
TAP	98	72	7
TAP	98	120	7
TAP	98	144	5
TAP	98	192	0
HLD	98	240	0	48
TAP	98	288	3
TAP	98	312	4
TAP	98	336	5
TAP	98	360	6
TAP	99	0	0
TAP	99	24	1
TAP	99	48	2
TAP	99	72	3
TAP	99	96	0
TAP	99	120	1
TAP	99	144	2
TAP	99	168	3
TAP	99	192	0
TAP	99	216	1
TAP	99	240	6
TAP	99	264	5
TAP	99	288	1
TAP	99	312	2
TAP	99	336	5
TAP	99	360	4
TAP	100	0	0
TAP	100	24	7
TAP	100	48	6
TAP	100	72	5
TAP	100	96	0
TAP	100	120	7
TAP	100	144	6
TAP	100	168	5
TAP	100	192	1
TAP	100	216	2
TAP	100	240	7
TAP	100	264	6
TAP	100	288	2
TAP	100	312	3
TAP	100	336	6
TAP	100	360	5
TAP	101	0	1
TAP	101	24	0
TAP	101	48	7
TAP	101	72	6
TAP	101	96	1
TAP	101	120	0
TAP	101	144	7
TAP	101	168	6
TAP	101	192	1
TAP	101	216	2
TAP	101	240	5
TAP	101	264	4
TAP	101	288	0
TAP	101	312	1
TAP	101	336	6
TAP	101	360	5
TAP	102	0	3
TAP	102	24	4
TAP	102	48	5
TAP	102	72	6
TAP	102	96	3
TAP	102	120	4
TAP	102	144	5
TAP	102	168	6
TAP	102	192	2
TAP	102	216	3
TAP	102	240	6
TAP	102	264	5
TAP	102	288	1
TAP	102	312	2
TAP	102	336	7
TAP	102	360	6
STR	103	0	0
SCR	103	0	0	96	96	4
STR	103	96	4
SCR	103	96	4	96	96	0
STR	103	192	0
SCR	103	192	0	96	96	4
STR	103	288	4
SLR	103	288	4	96	96	0
STR	104	0	0
SLR	104	0	0	96	96	4
TAP	104	96	4
STR	104	192	0
SI_	104	192	0	96	48	3
SI_	104	192	0	96	48	5
TAP	104	288	0
TAP	105	0	1
TAP	105	24	0
TAP	105	48	1
TAP	105	72	0
TAP	105	96	2
TAP	105	144	6
TAP	105	168	7
TAP	105	192	6
TAP	105	216	7
TAP	105	240	5
TAP	105	288	0
TAP	105	312	7
TAP	105	336	0
TAP	105	360	7
BRK	106	0	0
XTP	106	16	1
XTP	106	32	2
XTP	106	48	3
XTP	106	64	4
XTP	106	80	5
BRK	106	96	7
XTP	106	112	6
XTP	106	128	5
XTP	106	144	4
XTP	106	160	3
XTP	106	176	2
BRK	106	192	7
XTP	106	208	0
XTP	106	224	1
XTP	106	240	2
XTP	106	256	3
XTP	106	272	4
BRK	106	288	0
XTP	106	304	7
XTP	106	320	6
XTP	106	336	5
XTP	106	352	4
XTP	106	368	3
XTP	107	0	2
BST	107	0	7
SI_	107	0	7	96	1248	3
SLL	107	0	7	96	1248	0

T_REC_TAP	528
T_REC_BRK	14
T_REC_XTP	28
T_REC_HLD	74
T_REC_XHO	2
T_REC_STR	72
T_REC_BST	2
T_REC_XST	16
T_REC_TTP	53
T_REC_THO	2
T_REC_SLD	94
T_REC_ALL	885
T_NUM_TAP	697
T_NUM_BRK	16
T_NUM_HLD	78
T_NUM_SLD	94
T_NUM_ALL	885
T_JUDGE_TAP	713
T_JUDGE_HLD	164
T_JUDGE_SLD	94
T_JUDGE_ALL	971
TTM_EACHPAIRS	94
TTM_SCR_TAP	348500
TTM_SCR_BRK	41600
TTM_SCR_HLD	78000
TTM_SCR_SLD	141000
TTM_SCR_ALL	609100
TTM_SCR_S	589300
TTM_SCR_SS	607500
TTM_RAT_ACV	10026

