VERSION	0.00.00	1.03.00
FES_MODE	0
BPM_DEF	176.000	176.000	176.000	176.000
MET_DEF	4	4
RESOLUTION	384
CLK_DEF	384
COMPATIBLE_CODE	MA2

BPM	0	0	176.000
MET	0	0	4	4

BST	2	0	0
SCR	2	0	0	96	528	7
BST	2	0	7
SCL	2	0	7	96	528	0
HLD	4	0	6	384
TAP	4	96	4
TAP	4	144	4
TAP	4	240	2
TAP	4	288	2
HLD	5	0	1	384
TAP	5	96	3
TAP	5	144	3
TAP	5	240	5
TAP	5	288	5
HLD	6	0	6	384
TAP	6	96	4
TAP	6	144	4
TAP	6	240	2
TAP	6	288	2
TAP	7	0	1
TAP	7	96	3
TAP	7	96	4
TAP	7	192	5
TAP	7	192	6
TAP	7	288	0
TAP	7	288	7
TAP	8	0	1
TAP	8	0	3
TAP	8	96	2
TAP	8	144	2
TAP	8	144	4
TAP	8	240	5
TAP	8	288	3
TAP	8	288	5
TAP	9	0	4
TAP	9	0	6
TAP	9	96	5
TAP	9	144	3
TAP	9	144	5
TAP	9	240	2
TAP	9	288	2
TAP	9	288	4
TAP	10	0	1
TAP	10	0	3
TAP	10	96	2
TAP	10	144	2
TAP	10	144	4
TAP	10	240	5
TAP	10	288	3
TAP	10	288	5
TAP	11	0	4
TAP	11	0	6
TAP	11	96	0
TAP	11	96	7
TAP	11	192	1
TAP	11	192	3
TAP	11	288	3
TAP	11	288	4
HLD	12	0	1	144
STR	12	0	6
SI_	12	0	6	96	72	2
TAP	12	192	1
TAP	12	240	1
TAP	12	288	3
TAP	12	336	3
TAP	13	0	4
TAP	13	48	4
TAP	13	96	6
TAP	13	144	6
HLD	13	192	3	96
HLD	13	192	7	96
XHO	14	0	2	96
XHO	14	0	6	96
STR	14	144	1
SV_	14	144	1	96	48	2
STR	14	144	5
SV_	14	144	5	96	48	4
XHO	15	0	3	96
XHO	15	0	5	96
STR	15	144	2
SV_	15	144	2	96	48	3
STR	15	144	6
SV_	15	144	6	96	48	5
STR	16	0	1
SI_	16	0	1	96	72	5
HLD	16	0	6	144
TAP	16	192	6
TAP	16	240	6
TAP	16	288	4
TAP	16	336	4
TAP	17	0	3
TAP	17	48	3
TAP	17	96	1
TAP	17	144	1
HLD	17	192	0	96
HLD	17	192	4	96
TAP	18	0	1
HLD	18	48	1	96
TAP	18	144	3
HLD	18	192	3	96
TAP	18	288	4
HLD	18	336	4	96
TAP	19	48	6
HLD	19	96	6	96
TAP	19	192	1
TAP	19	288	3
TAP	19	288	4
HLD	20	0	2	96
HLD	20	0	5	96
HLD	20	144	1	96
HLD	20	144	4	96
TAP	20	288	0
STR	20	288	3
SCL	20	288	3	96	192	6
XTP	21	288	3
XTP	21	288	4
HLD	22	0	2	96
HLD	22	0	5	96
HLD	22	144	3	96
HLD	22	144	6	96
STR	22	288	4
SCR	22	288	4	96	192	1
TAP	22	288	7
XST	23	288	2
SSL	23	288	2	96	144	6
XTP	23	288	5
BRK	24	0	6
XHO	24	144	7	144
XST	24	288	5
SXR	24	288	5	96	192	2
XTP	25	288	3
XTP	25	288	6
HLD	26	0	2	96
HLD	26	0	5	96
HLD	26	144	1	96
HLD	26	144	4	96
TAP	26	288	0
STR	26	288	3
SCL	26	288	3	96	192	6
TAP	27	288	3
TAP	27	288	4
HLD	28	0	5	192
TTP	28	96	5	B	0	M1
HLD	28	192	2	192
TTP	28	288	2	B	0	M1
HLD	29	0	6	192
TTP	29	96	5	B	0	M1
HLD	29	192	1	192
TTP	29	288	2	B	0	M1
XTP	30	0	6
TAP	30	48	6
TAP	30	96	4
TAP	30	144	5
TAP	30	192	1
TAP	30	240	1
TAP	30	288	3
TAP	30	336	2
TAP	31	0	7
TAP	31	24	0
TAP	31	48	7
TAP	31	72	0
TAP	31	96	7
TAP	31	120	0
TAP	31	144	7
TAP	31	168	0
TAP	31	192	7
BRK	31	288	1
BRK	31	288	6
TAP	32	0	3
HLD	32	0	5	72
HLD	32	72	6	72
TAP	32	144	7
STR	32	192	7
SI_	32	192	7	96	48	3
TAP	32	288	0
HLD	33	0	2	72
TAP	33	0	6
HLD	33	72	1	72
TAP	33	144	0
STR	33	192	0
SI_	33	192	0	96	48	3
TAP	33	288	5
TAP	34	0	5
TAP	34	48	5
TAP	34	72	4
TAP	34	120	4
TAP	34	144	6
TAP	34	192	2
TAP	34	240	2
TAP	34	264	3
TAP	34	312	3
TAP	34	336	1
TAP	35	0	5
TAP	35	48	5
TAP	35	72	4
TAP	35	120	4
TAP	35	144	6
STR	35	192	2
SCR	35	192	2	96	48	5
XHO	36	0	6	72
HLD	36	72	5	72
TAP	36	144	4
STR	36	192	4
SCR	36	192	4	96	48	7
TAP	36	240	3
TAP	36	288	2
HLD	37	0	1	72
HLD	37	72	2	72
TAP	37	144	3
STR	37	192	3
SCL	37	192	3	96	48	0
TAP	37	240	4
TAP	37	288	5
HLD	38	0	6	72
TAP	38	72	7
TAP	38	144	0
TAP	38	144	5
HLD	38	192	1	72
TAP	38	264	0
TAP	38	336	2
TAP	38	336	7
TAP	39	0	6
TAP	39	48	6
TAP	39	96	1
TAP	39	96	5
TAP	39	192	3
TAP	39	216	4
TAP	39	240	3
BRK	39	288	2
BRK	39	288	5
TAP	40	0	0
HLD	40	0	6	72
HLD	40	72	5	72
TAP	40	144	4
STR	40	192	4
SI_	40	192	4	96	48	7
TAP	40	288	3
HLD	41	0	1	72
TAP	41	0	5
HLD	41	72	2	72
TAP	41	144	3
STR	41	192	3
SI_	41	192	3	96	48	0
TAP	41	288	6
TAP	42	0	6
TAP	42	48	6
TAP	42	72	7
TAP	42	120	7
TAP	42	144	5
TAP	42	192	1
TAP	42	240	1
TAP	42	264	0
TAP	42	312	0
TAP	42	336	2
TAP	43	0	6
TAP	43	48	6
TAP	43	72	7
TAP	43	120	7
TAP	43	144	5
STR	43	192	1
SV_	43	192	1	96	48	4
HLD	44	0	6	96
TAP	44	96	4
STR	44	144	4
SI_	44	144	4	96	48	0
TAP	44	144	6
TAP	44	240	7
TAP	44	288	7
HLD	45	0	1	96
TAP	45	96	3
TAP	45	144	1
STR	45	144	3
SI_	45	144	3	96	48	7
TAP	45	240	0
TAP	45	288	0
TAP	46	0	6
TAP	46	48	5
TAP	46	96	3
TAP	46	144	4
TAP	46	192	1
TAP	46	240	2
TAP	46	288	4
TAP	46	336	3
TAP	47	0	7
TAP	47	48	6
TAP	47	96	2
TAP	47	144	3
TAP	47	192	4
TAP	47	240	5
BRK	47	288	1
BRK	47	288	6
TAP	48	0	0
STR	48	0	7
SCL	48	0	7	96	192	2
TAP	48	96	0
TAP	48	192	0
HLD	48	288	0	384
TTP	49	0	1	E	0	M1
TTP	49	96	2	E	0	M1
TTP	49	192	3	E	0	M1
TTP	49	288	4	E	0	M1
XST	50	0	0
SCR	50	0	0	96	192	5
XTP	50	0	6
TAP	50	96	7
TAP	50	192	7
HLD	50	288	7	384
TTP	51	0	7	E	0	M1
TTP	51	96	6	E	0	M1
TTP	51	192	5	E	0	M1
TTP	51	288	4	E	0	M1
XTP	52	0	0
XST	52	0	7
SCL	52	0	7	96	192	2
TAP	52	96	0
TAP	52	192	0
HLD	52	288	0	384
TTP	53	0	1	E	0	M1
TTP	53	96	2	E	0	M1
TTP	53	192	3	E	0	M1
TTP	53	288	4	E	0	M1
XST	54	0	0
SCR	54	0	0	96	192	5
XTP	54	0	7
TAP	54	96	7
TAP	54	192	7
HLD	54	288	7	288
TTP	55	0	7	E	0	M1
TTP	55	96	6	E	0	M1
TTP	55	192	5	E	0	M1
XTP	55	288	2
XTP	55	288	6
BRK	56	0	1
BST	56	0	7
SLL	56	0	7	96	192	1
TAP	56	96	0
TAP	56	192	2
HLD	56	288	0	384
TTP	57	0	2	E	0	M1
TTP	57	96	4	E	0	M1
TTP	57	192	6	E	0	M1
TTP	57	288	0	E	0	M1
XST	58	0	0
SLR	58	0	0	96	192	6
XTP	58	0	6
TAP	58	96	7
TAP	58	192	5
HLD	58	288	7	384
TTP	59	0	6	E	0	M1
TTP	59	96	4	E	0	M1
TTP	59	192	2	E	0	M1
TTP	59	288	0	E	0	M1
XTP	60	0	1
XST	60	0	7
SLL	60	0	7	96	192	1
TAP	60	96	0
TAP	60	192	2
HLD	60	288	0	384
TTP	61	0	0	E	0	M1
TTP	61	96	2	E	0	M1
TTP	61	192	4	E	0	M1
TTP	61	288	6	E	0	M1
XST	62	0	0
SLR	62	0	0	96	192	6
XTP	62	0	6
TAP	62	96	7
TAP	62	192	5
HLD	62	288	7	288
TTP	63	0	0	E	0	M1
TTP	63	96	6	E	0	M1
TTP	63	192	4	E	0	M1
XTP	63	288	2
XTP	63	288	5
BST	64	0	0
SXL	64	0	0	96	384	3
BST	64	0	7
SXR	64	0	7	96	384	4
TAP	66	0	3
HLD	66	0	5	192
XTP	66	192	4
HLD	67	0	2	192
TAP	67	0	4
TAP	67	96	4
XTP	67	192	3
TAP	68	0	3
HLD	68	0	5	192
TAP	68	96	3
XTP	68	192	4
HLD	69	0	2	96
HLD	69	0	4	96
XTP	69	192	1
XTP	69	192	5
TAP	70	0	3
HLD	70	0	5	192
TTP	70	192	6	E	0	M1
HLD	71	0	2	192
TAP	71	0	4
TAP	71	96	4
TTP	71	192	2	E	0	M1
TAP	72	0	3
HLD	72	0	5	192
TAP	72	96	3
TTP	72	192	6	E	0	M1
HLD	73	0	2	96
HLD	73	0	4	96
TTP	73	192	2	E	0	M1
TTP	73	192	4	E	0	M1
TAP	74	0	3
STR	74	96	4
SI_	74	96	4	96	96	2
XTP	74	192	5
TAP	75	0	4
STR	75	96	3
SI_	75	96	3	96	96	5
XTP	75	192	2
TAP	76	0	3
STR	76	96	4
SI_	76	96	4	96	96	2
XTP	76	192	5
TAP	77	0	4
TAP	77	96	3
TAP	77	96	5
XTP	77	192	2
XTP	77	192	6
TAP	78	0	4
STR	78	96	3
SV_	78	96	3	96	96	4
XHO	78	192	2	192
TAP	79	0	3
STR	79	96	4
SV_	79	96	4	96	96	3
XHO	79	192	5	192
TAP	80	0	4
STR	80	96	3
SV_	80	96	3	96	96	4
XHO	80	192	2	192
THO	81	0	0	192	C	0	M1
XTP	82	0	0
XTP	82	0	7
TAP	82	96	6
TAP	82	96	7
TAP	82	192	5
TAP	82	192	6
TAP	82	288	4
TAP	82	288	5
TAP	83	0	3
TAP	83	0	4
TAP	83	96	2
TAP	83	96	3
TAP	83	192	1
TAP	83	192	2
TAP	83	288	0
TAP	83	288	1
TAP	84	0	7
TAP	84	48	7
TAP	84	96	4
TAP	84	144	5
TAP	84	192	0
TAP	84	240	0
TAP	84	288	3
TAP	84	336	2
TAP	85	0	7
TAP	85	48	7
TAP	85	96	4
TAP	85	144	5
TAP	85	192	3
TAP	85	216	4
TAP	85	240	3
TAP	85	264	4
TAP	85	288	3
TAP	85	312	4
TAP	85	336	3
TAP	85	360	4
TTP	86	0	0	C	1	M1
BRK	86	288	1
BRK	86	288	6
TAP	87	0	0
HLD	87	0	7	72
HLD	87	72	6	72
TAP	87	144	5
STR	87	192	5
SLR	87	192	5	96	96	3
TAP	87	264	3
TAP	87	336	2
HLD	88	0	2	72
HLD	88	72	1	72
TAP	88	144	0
STR	88	192	0
SLR	88	192	0	96	96	6
TAP	88	264	3
TAP	88	336	5
HLD	89	0	5	72
HLD	89	72	6	72
TAP	89	144	7
STR	89	192	7
SLL	89	192	7	96	96	1
TAP	89	264	2
TAP	89	336	0
HLD	90	0	0	72
HLD	90	72	1	72
TAP	90	144	2
STR	90	192	2
SLL	90	192	2	96	96	4
TAP	90	264	4
TAP	90	336	6
BST	91	0	6
SI_	91	0	6	96	48	2
TAP	91	96	4
STR	91	144	4
SCL	91	144	4	96	240	6
TAP	92	0	5
TAP	92	96	5
TAP	92	192	3
TAP	92	192	5
TAP	92	288	2
TAP	92	288	4
BST	93	0	1
SI_	93	0	1	96	48	5
TAP	93	96	3
STR	93	144	3
SCR	93	144	3	96	240	1
TAP	94	0	2
TAP	94	96	2
TAP	94	192	2
TAP	94	192	4
BRK	94	288	1
BRK	94	288	5
HLD	95	0	3	72
TAP	95	0	4
HLD	95	72	2	72
TAP	95	144	1
STR	95	192	1
SLR	95	192	1	96	96	7
TAP	95	264	7
TAP	95	336	6
HLD	96	0	6	72
HLD	96	72	5	72
TAP	96	144	4
STR	96	192	4
SLR	96	192	4	96	96	2
TAP	96	264	7
TAP	96	336	1
HLD	97	0	1	72
HLD	97	72	2	72
TAP	97	144	3
STR	97	192	3
SLL	97	192	3	96	96	5
TAP	97	264	6
TAP	97	336	4
HLD	98	0	4	72
HLD	98	72	5	72
TAP	98	144	6
STR	98	192	6
SLL	98	192	6	96	96	0
TAP	98	264	0
TAP	98	336	1
STR	99	0	1
SI_	99	0	1	96	48	4
TAP	99	96	5
STR	99	144	5
SCR	99	144	5	96	48	0
TAP	99	240	4
TAP	99	288	4
STR	100	0	6
SI_	100	0	6	96	48	3
TAP	100	96	2
STR	100	144	2
SCL	100	144	2	96	48	7
TAP	100	240	3
TAP	100	288	3
HLD	101	0	6	96
TAP	101	0	7
TAP	101	96	4
STR	101	144	4
SCL	101	144	4	96	48	1
TAP	101	240	5
TAP	101	288	5
TAP	102	0	0
HLD	102	0	1	96
TAP	102	96	3
STR	102	144	3
SCR	102	144	3	96	48	6
TAP	102	240	2
BRK	102	288	2
STR	103	0	1
SI_	103	0	1	96	48	4
TAP	103	48	1
TAP	103	96	5
STR	103	144	6
SI_	103	144	6	96	48	3
TAP	103	192	6
TAP	103	240	2
TAP	103	288	1
TAP	103	336	1
STR	104	0	5
SI_	104	0	5	96	48	0
TAP	104	48	5
TAP	104	96	1
STR	104	144	2
SI_	104	144	2	96	48	7
TAP	104	192	2
TAP	104	240	6
TAP	104	288	5
TAP	104	336	5
TAP	105	0	1
TAP	105	0	4
TAP	105	48	2
TAP	105	96	3
TAP	105	144	4
TAP	105	144	7
TAP	105	192	6
TAP	105	240	5
TAP	105	288	2
TAP	105	288	4
TAP	105	336	2
TAP	105	336	4
TAP	106	0	3
TAP	106	24	4
TAP	106	48	3
TAP	106	72	4
TAP	106	96	3
TAP	106	120	4
TAP	106	144	3
TAP	106	168	4
TAP	106	192	3
TAP	106	216	2
TAP	106	240	1
TAP	106	264	0
TAP	106	288	7
TAP	106	312	6
TAP	106	336	5
TAP	106	360	4
BST	107	0	3
SCL	107	0	3	96	864	3
SCR	107	0	3	96	864	3

T_REC_TAP	339
T_REC_BRK	13
T_REC_XTP	28
T_REC_HLD	80
T_REC_XHO	9
T_REC_STR	46
T_REC_BST	8
T_REC_XST	8
T_REC_TTP	40
T_REC_THO	1
T_REC_SLD	63
T_REC_ALL	635
T_NUM_TAP	461
T_NUM_BRK	21
T_NUM_HLD	90
T_NUM_SLD	63
T_NUM_ALL	635
T_JUDGE_TAP	482
T_JUDGE_HLD	273
T_JUDGE_SLD	63
T_JUDGE_ALL	818
TTM_EACHPAIRS	94
TTM_SCR_TAP	230500
TTM_SCR_BRK	54600
TTM_SCR_HLD	90000
TTM_SCR_SLD	94500
TTM_SCR_ALL	469600
TTM_SCR_S	453500
TTM_SCR_SS	467500
TTM_RAT_ACV	10044

