VERSION	0.00.00	1.03.00
FES_MODE	0
BPM_DEF	176.000	176.000	176.000	176.000
MET_DEF	4	4
RESOLUTION	384
CLK_DEF	384
COMPATIBLE_CODE	MA2

BPM	0	0	176.000
MET	0	0	4	4

XST	2	0	3
SXR	2	0	3	96	480	0
XST	2	0	4
SXL	2	0	4	96	480	7
HLD	4	0	6	384
HLD	5	0	7	384
HLD	6	0	0	384
TAP	7	0	1
HLD	8	0	2	384
HLD	9	0	3	384
HLD	10	0	4	384
TAP	11	0	5
HLD	12	0	6	192
TAP	12	192	7
HLD	13	0	1	192
TAP	13	192	0
HLD	14	0	6	192
TAP	14	192	7
HLD	15	0	0	96
HLD	15	0	1	96
TAP	15	192	0
TAP	15	192	1
HLD	16	0	2	192
TAP	16	192	3
HLD	17	0	5	192
TAP	17	192	4
HLD	18	0	2	192
TAP	18	192	3
HLD	19	0	4	96
HLD	19	0	5	96
TAP	19	192	4
TAP	19	192	5
STR	20	0	6
SI_	20	0	6	96	144	3
TAP	21	0	2
TAP	21	96	2
TAP	21	192	2
TAP	21	192	3
STR	22	0	1
SI_	22	0	1	96	144	4
TAP	23	0	5
TAP	23	96	5
TAP	23	192	4
STR	23	288	3
SSR	23	288	3	96	192	7
XTP	25	0	6
TAP	25	96	6
TAP	25	192	6
TAP	25	192	7
STR	26	0	5
SI_	26	0	5	96	144	0
TAP	27	0	1
TAP	27	96	1
TAP	27	192	0
TAP	27	192	7
HLD	28	0	6	192
HLD	28	192	7	192
HLD	29	0	0	192
TAP	29	192	1
TAP	30	0	2
TAP	30	96	3
TAP	30	192	4
TAP	30	288	5
TAP	31	0	3
TAP	31	0	4
TAP	31	48	3
TAP	31	48	4
TAP	31	96	3
TAP	31	96	4
BRK	31	192	2
BRK	31	192	5
TAP	32	0	6
TAP	32	0	7
TAP	32	96	6
TAP	32	96	7
TAP	32	192	0
TAP	32	192	5
TAP	33	0	0
TAP	33	0	1
TAP	33	96	0
TAP	33	96	1
TAP	33	192	2
TAP	33	192	7
TAP	34	0	6
TAP	34	96	6
TAP	34	192	7
TAP	34	288	7
TAP	35	0	0
TAP	35	96	0
TAP	35	192	1
TAP	35	192	7
TAP	36	0	2
TAP	36	0	3
TAP	36	96	2
TAP	36	96	3
TAP	36	192	1
TAP	36	192	4
TAP	37	0	4
TAP	37	0	5
TAP	37	96	4
TAP	37	96	5
TAP	37	192	3
TAP	37	192	6
TAP	38	0	2
TAP	38	96	2
TAP	38	96	3
TAP	38	192	5
TAP	38	288	4
TAP	38	288	5
TAP	39	0	3
TAP	39	96	3
TAP	39	96	4
TAP	39	192	2
TAP	39	192	5
TAP	40	0	0
TAP	40	0	1
TAP	40	96	0
TAP	40	96	1
TAP	40	192	2
TAP	40	192	7
TAP	41	0	6
TAP	41	0	7
TAP	41	96	6
TAP	41	96	7
TAP	41	192	0
TAP	41	192	5
TAP	42	0	1
TAP	42	96	1
TAP	42	192	0
TAP	42	288	0
TAP	43	0	7
TAP	43	96	7
TAP	43	192	0
TAP	43	192	6
TAP	44	0	4
STR	44	0	5
SCR	44	0	5	96	144	0
TAP	45	0	0
STR	45	0	1
SCR	45	0	1	96	144	4
TAP	46	0	5
TAP	46	96	4
TAP	46	96	5
TAP	46	192	2
TAP	46	288	2
TAP	46	288	3
TAP	47	0	4
TAP	47	96	3
TAP	47	96	4
BRK	47	192	2
BRK	47	192	5
TTP	48	0	6	E	0	L1
TTP	48	96	5	B	0	L1
TTP	48	192	4	B	0	L1
TTP	49	0	2	E	0	L1
TTP	49	96	2	B	0	L1
TTP	49	192	3	B	0	L1
TTP	50	0	6	B	0	L1
TTP	50	96	5	B	0	L1
TTP	50	192	4	B	0	L1
TTP	50	288	3	B	0	L1
TTP	51	0	2	B	0	L1
TTP	51	96	1	B	0	L1
TTP	51	192	0	B	0	L1
TTP	52	0	4	B	0	L1
TTP	52	96	5	B	0	L1
TTP	52	192	6	E	0	L1
TTP	53	0	3	B	0	L1
TTP	53	96	2	B	0	L1
TTP	53	192	2	E	0	L1
TTP	54	0	4	B	0	L1
TTP	54	96	5	B	0	L1
TTP	54	192	6	B	0	L1
TTP	54	288	7	B	0	L1
TTP	55	0	0	B	0	L1
TTP	55	96	1	B	0	L1
TTP	55	192	2	B	0	L1
XTP	56	0	5
TAP	56	96	5
TAP	56	192	4
TAP	56	192	5
TAP	57	0	2
TAP	57	96	2
TAP	57	192	2
TAP	57	192	3
TAP	58	0	5
TAP	58	96	5
TAP	58	192	4
TAP	58	288	4
TAP	59	0	3
TAP	59	96	3
TAP	59	192	2
TAP	59	192	4
TAP	60	0	1
TAP	60	96	1
TAP	60	192	0
TAP	60	192	1
TAP	61	0	6
TAP	61	96	6
TAP	61	192	6
TAP	61	192	7
TAP	62	0	1
TAP	62	96	1
TAP	62	192	0
TAP	62	288	0
TAP	63	0	7
TAP	63	96	0
TAP	63	96	7
TAP	63	192	1
TAP	63	192	6
BST	64	0	0
SXL	64	0	0	96	480	3
BST	64	0	7
SXR	64	0	7	96	480	4
HLD	66	0	5	192
TAP	66	192	4
HLD	67	0	2	192
TAP	67	192	3
HLD	68	0	5	192
TAP	68	192	4
HLD	69	0	2	96
HLD	69	0	3	96
TAP	69	192	2
TAP	69	192	3
HLD	70	0	1	192
TAP	70	192	0
HLD	71	0	6	192
TAP	71	192	7
HLD	72	0	1	192
TAP	72	192	0
HLD	73	0	6	96
HLD	73	0	7	96
TAP	73	192	6
TAP	73	192	7
STR	74	0	5
SCR	74	0	5	96	144	0
STR	75	0	1
SUR	75	0	1	96	144	5
STR	76	0	6
SUL	76	0	6	96	144	2
TAP	77	0	1
TAP	77	96	1
TAP	77	192	1
STR	78	0	2
SCL	78	0	2	96	144	7
STR	79	0	6
SUL	79	0	6	96	144	2
STR	80	0	1
SUR	80	0	1	96	144	5
TAP	81	0	6
TAP	81	96	6
TAP	81	192	0
TAP	81	192	7
TAP	82	0	6
TAP	82	96	5
TAP	82	192	4
TAP	82	288	3
TAP	83	0	2
TAP	83	96	1
TAP	83	192	0
TAP	83	288	7
TAP	84	0	6
TAP	84	48	6
TAP	84	96	6
TAP	84	192	5
TAP	84	240	5
TAP	84	288	5
TAP	85	0	4
TAP	85	48	4
TAP	85	96	4
TAP	85	192	3
TAP	85	240	3
TAP	85	288	3
TTP	86	0	0	C	1	L1
TAP	87	0	7
TAP	87	96	6
TAP	87	192	6
TAP	87	192	7
TAP	87	288	0
TAP	87	288	5
TAP	88	0	1
TAP	88	96	1
TAP	88	192	0
TAP	88	192	1
TAP	88	288	2
TAP	88	288	7
TAP	89	0	3
TAP	89	96	2
TAP	89	192	2
TAP	89	192	3
TAP	89	288	1
TAP	89	288	4
TAP	90	0	0
TAP	90	96	0
TAP	90	96	7
TAP	90	192	1
TAP	90	192	6
STR	91	0	6
SI_	91	0	6	96	144	3
STR	91	0	7
SI_	91	0	7	96	144	2
TAP	92	0	1
TAP	92	96	1
TAP	92	192	7
TAP	92	288	7
STR	93	0	0
SI_	93	0	0	96	144	5
STR	93	0	1
SI_	93	0	1	96	144	4
TAP	94	0	6
TAP	94	96	0
TAP	94	96	7
BRK	94	192	1
BRK	94	192	6
TAP	95	0	2
TAP	95	96	2
TAP	95	192	2
TAP	95	192	3
TAP	95	288	1
TAP	95	288	4
TAP	96	0	5
TAP	96	96	5
TAP	96	192	4
TAP	96	192	5
TAP	96	288	3
TAP	96	288	6
TAP	97	0	7
TAP	97	96	6
TAP	97	192	6
TAP	97	192	7
TAP	97	288	0
TAP	97	288	5
TAP	98	0	4
TAP	98	96	3
TAP	98	96	4
TAP	98	192	2
TAP	98	192	5
XHO	99	0	0	96
XHO	99	0	1	96
XHO	99	192	6	96
XHO	99	192	7	96
XHO	100	0	4	96
XHO	100	0	5	96
XHO	100	192	2	96
XHO	100	192	3	96
TAP	101	0	1
TAP	101	96	1
TAP	101	192	2
TAP	101	288	2
TAP	102	0	3
TAP	102	96	3
TAP	102	192	4
TAP	102	288	4
BST	103	0	3
SCL	103	0	3	96	144	0
BST	103	0	4
SCR	103	0	4	96	144	7
TAP	104	0	1
TAP	104	96	0
TAP	104	96	1
TAP	104	192	2
TAP	104	288	2
TAP	104	288	3
TAP	105	0	5
TAP	105	96	4
TAP	105	96	5
TAP	105	192	6
TAP	105	288	6
TAP	105	288	7
TAP	106	0	0
TAP	106	48	0
TAP	106	96	0
TAP	106	192	7
TAP	106	240	7
TAP	106	288	7
BST	107	0	1
SLR	107	0	1	96	384	7
BST	107	0	6
SLL	107	0	6	96	384	0

T_REC_TAP	259
T_REC_BRK	6
T_REC_XTP	2
T_REC_HLD	29
T_REC_XHO	8
T_REC_STR	16
T_REC_BST	6
T_REC_XST	2
T_REC_TTP	27
T_REC_THO	0
T_REC_SLD	24
T_REC_ALL	379
T_NUM_TAP	306
T_NUM_BRK	12
T_NUM_HLD	37
T_NUM_SLD	24
T_NUM_ALL	379
T_JUDGE_TAP	318
T_JUDGE_HLD	140
T_JUDGE_SLD	24
T_JUDGE_ALL	482
TTM_EACHPAIRS	85
TTM_SCR_TAP	153000
TTM_SCR_BRK	31200
TTM_SCR_HLD	37000
TTM_SCR_SLD	36000
TTM_SCR_ALL	257200
TTM_SCR_S	248350
TTM_SCR_SS	256000
TTM_RAT_ACV	10046

