VERSION	0.00.00	1.03.00
FES_MODE	0
BPM_DEF	176.000	176.000	176.000	176.000
MET_DEF	4	4
RESOLUTION	384
CLK_DEF	384
COMPATIBLE_CODE	MA2

BPM	0	0	176.000
MET	0	0	4	4

XTP	4	0	3
TAP	6	0	3
TAP	8	0	4
TAP	10	0	4
TAP	12	0	3
TAP	13	0	3
TAP	14	0	2
TAP	15	0	2
TAP	16	0	1
TAP	17	0	1
TAP	18	0	0
XTP	19	0	0
XTP	19	0	7
HLD	20	0	7	288
HLD	22	0	6	288
XHO	24	0	5	288
HLD	26	0	3	288
HLD	26	0	4	288
TTP	28	0	3	B	0	L1
TTP	28	0	4	B	0	L1
TTP	29	0	2	B	0	L1
TTP	29	0	5	B	0	L1
THO	30	0	0	384	C	1	L1
XTP	32	0	7
TAP	32	192	7
TAP	33	0	7
TAP	34	0	6
TAP	34	192	6
TAP	35	0	6
TAP	36	0	5
TAP	36	192	5
TAP	37	0	5
TAP	38	0	4
TAP	38	192	4
XTP	39	0	3
XTP	39	0	4
TAP	40	0	3
TAP	40	192	3
TAP	41	0	3
TAP	42	0	2
TAP	42	192	2
TAP	43	0	2
TAP	44	0	1
TAP	44	192	1
TAP	45	0	1
TAP	46	0	0
TAP	46	192	0
XTP	47	0	0
XTP	47	0	7
STR	48	0	0
SI_	48	0	0	96	288	3
STR	50	0	7
SI_	50	0	7	96	288	4
STR	52	0	0
SI_	52	0	0	96	288	4
STR	54	0	7
SI_	54	0	7	96	288	3
STR	56	0	1
SI_	56	0	1	96	288	4
STR	58	0	6
SI_	58	0	6	96	288	3
STR	60	0	1
SI_	60	0	1	96	288	5
STR	62	0	6
SI_	62	0	6	96	288	2
BRK	64	0	0
TTP	66	0	7	B	0	L1
TTP	67	0	0	B	0	L1
TTP	68	0	6	B	0	L1
TTP	69	0	1	B	0	L1
TTP	70	0	5	B	0	L1
TTP	71	0	2	B	0	L1
THO	72	0	0	384	C	0	L1
HLD	74	0	6	384
HLD	74	0	7	384
HLD	76	0	4	384
HLD	76	0	5	384
HLD	78	0	2	384
HLD	78	0	3	384
HLD	80	0	0	384
HLD	80	0	1	384
TAP	82	0	0
TAP	82	192	1
TAP	83	0	2
TAP	83	192	3
TAP	84	0	4
TAP	84	192	5
TAP	85	0	6
TAP	85	192	7
BRK	86	0	0
TAP	87	0	7
TAP	87	192	7
TAP	88	0	6
TAP	88	96	6
TAP	88	192	6
TAP	89	0	5
TAP	89	192	5
TAP	90	0	4
TAP	90	96	4
TAP	90	192	3
TAP	90	192	4
TAP	91	0	3
TAP	91	192	3
TAP	92	0	2
TAP	92	96	2
TAP	92	192	2
TAP	93	0	1
TAP	93	192	1
TAP	94	0	0
TAP	94	96	0
TAP	94	192	0
TAP	94	192	7
TAP	95	0	1
TAP	95	96	1
TAP	95	192	1
TAP	96	0	2
TAP	96	96	2
TAP	96	192	2
TAP	97	0	3
TAP	97	96	3
TAP	97	192	3
TAP	98	0	4
TAP	98	96	4
TAP	98	192	3
TAP	98	192	4
TAP	99	0	5
TAP	99	96	5
TAP	99	192	5
TAP	100	0	6
TAP	100	96	6
TAP	100	192	6
TAP	101	0	7
TAP	101	96	7
TAP	101	192	7
TAP	102	0	0
TAP	102	96	0
TAP	102	192	0
TAP	102	192	7
TAP	103	0	7
TAP	103	96	7
TAP	103	192	6
TAP	103	288	6
TAP	104	0	5
TAP	104	96	5
TAP	104	192	3
TAP	104	192	4
TAP	105	0	3
TAP	105	96	3
TAP	105	192	2
TAP	105	288	2
TAP	106	0	1
TAP	106	96	1
TAP	106	192	0
TAP	106	192	7
BRK	107	0	1
BRK	107	0	6

T_REC_TAP	103
T_REC_BRK	4
T_REC_XTP	8
T_REC_HLD	12
T_REC_XHO	1
T_REC_STR	8
T_REC_BST	0
T_REC_XST	0
T_REC_TTP	10
T_REC_THO	2
T_REC_SLD	8
T_REC_ALL	156
T_NUM_TAP	129
T_NUM_BRK	4
T_NUM_HLD	15
T_NUM_SLD	8
T_NUM_ALL	156
T_JUDGE_TAP	133
T_JUDGE_HLD	110
T_JUDGE_SLD	8
T_JUDGE_ALL	251
TTM_EACHPAIRS	15
TTM_SCR_TAP	64500
TTM_SCR_BRK	10400
TTM_SCR_HLD	15000
TTM_SCR_SLD	12000
TTM_SCR_ALL	101900
TTM_SCR_S	98500
TTM_SCR_SS	101500
TTM_RAT_ACV	10039

