VERSION	0.00.00	1.03.00
FES_MODE	0
BPM_DEF	175.000	175.000	175.000	175.000
MET_DEF	4	4
RESOLUTION	384
CLK_DEF	384
COMPATIBLE_CODE	MA2

BPM	0	0	175.000
MET	0	0	4	4

HLD	2	0	4	768
TAP	2	96	3
TAP	2	288	3
TAP	3	96	3
TAP	3	288	3
HLD	4	0	3	768
TAP	4	96	4
TAP	4	288	4
TAP	5	96	4
TAP	5	288	4
HLD	6	0	5	768
TAP	6	96	4
TAP	6	288	4
TAP	7	96	4
TAP	7	288	4
HLD	8	0	2	672
TAP	8	96	3
STR	8	288	3
SCL	8	288	3	96	288	4
XTP	10	0	1
XTP	10	0	4
XST	10	48	1
SCL	10	48	1	96	48	6
XTP	10	48	4
TAP	10	96	5
TAP	10	192	5
XTP	10	288	3
XTP	10	288	6
XTP	10	336	3
XST	10	336	6
SCL	10	336	6	96	48	3
TAP	11	48	2
TAP	11	144	2
XTP	11	192	0
XTP	11	192	1
XTP	11	240	0
XTP	11	240	1
TAP	11	288	2
TAP	11	288	7
XTP	12	0	3
XTP	12	0	6
XTP	12	48	3
XST	12	48	6
SCR	12	48	6	96	48	1
TAP	12	96	2
TAP	12	192	2
XTP	12	288	1
XTP	12	288	4
XST	12	336	1
SCR	12	336	1	96	48	4
XTP	12	336	4
TAP	13	48	5
TAP	13	144	5
XTP	13	192	6
XTP	13	192	7
XTP	13	240	6
XTP	13	240	7
TAP	13	288	0
TAP	13	288	5
XTP	14	0	2
XTP	14	0	7
XST	14	48	2
SCR	14	48	2	96	48	5
XTP	14	48	7
TAP	14	96	6
TAP	14	192	6
XTP	14	288	0
XTP	14	288	5
XTP	14	336	0
XST	14	336	5
SCR	14	336	5	96	48	0
TAP	15	48	1
TAP	15	144	1
XTP	15	192	2
XTP	15	192	3
XTP	15	240	2
XTP	15	240	3
TAP	15	288	1
TAP	15	288	4
XTP	16	0	0
XTP	16	0	5
XTP	16	48	0
XST	16	48	5
SCL	16	48	5	96	48	2
TAP	16	96	1
TAP	16	192	1
XTP	16	288	2
XTP	16	288	7
XST	16	336	2
SCL	16	336	2	96	48	7
XTP	16	336	7
TAP	17	48	6
TAP	17	144	6
TAP	17	192	4
TAP	17	192	5
XTP	17	240	3
XTP	17	240	6
XTP	17	288	2
XST	17	288	7
SI_	17	288	7	96	48	4
XHO	18	0	0	768
TTP	18	96	6	B	0	M1
TTP	18	192	5	B	0	M1
TTP	18	288	4	B	0	M1
TTP	19	0	3	B	0	M1
TTP	19	96	2	B	0	M1
TTP	19	192	1	B	0	M1
TTP	19	288	0	B	0	M1
HLD	20	0	7	768
TTP	20	96	1	B	0	M1
TTP	20	192	2	B	0	M1
TTP	20	288	3	B	0	M1
TTP	21	0	4	B	0	M1
TTP	21	96	5	B	0	M1
TTP	21	192	6	B	0	M1
TTP	21	288	7	B	0	M1
TAP	22	0	0
TAP	22	48	0
TAP	22	96	1
TAP	22	96	7
TAP	22	144	1
TAP	22	144	7
TAP	22	192	2
TAP	22	192	6
TAP	22	240	2
TAP	22	240	6
TAP	22	288	3
TAP	22	288	5
TAP	22	336	3
TAP	22	336	5
TAP	23	0	4
TAP	23	24	3
TAP	23	48	6
TAP	23	72	1
TAP	23	96	5
TAP	23	120	2
TAP	23	144	7
TAP	23	168	0
TAP	23	192	5
TAP	23	216	2
TAP	23	240	7
TAP	23	264	0
TAP	23	288	4
TAP	23	312	3
TAP	23	336	6
TAP	23	360	1
TTP	24	0	0	C	1	M1
TAP	25	0	3
TAP	25	0	4
TAP	25	48	5
TAP	25	72	4
TAP	25	96	5
TAP	25	120	4
TAP	25	144	5
TAP	25	192	2
TAP	25	216	3
TAP	25	240	2
TAP	25	264	3
BRK	25	288	0
XTP	26	0	3
XTP	26	0	5
HLD	26	96	6	48
HLD	26	96	7	48
HLD	26	192	6	48
HLD	26	192	7	48
TAP	26	288	3
TAP	26	288	5
HLD	26	336	3	48
HLD	26	336	5	48
HLD	27	48	6	48
HLD	27	48	7	48
TAP	27	144	3
TAP	27	144	5
TAP	27	192	3
STR	27	192	5
SCR	27	192	5	96	48	0
STR	27	288	1
SCR	27	288	1	96	48	4
XTP	28	0	5
HLD	28	96	6	48
HLD	28	96	7	48
HLD	28	192	6	48
HLD	28	192	7	48
TAP	28	288	3
TAP	28	288	5
HLD	28	336	3	48
HLD	28	336	5	48
HLD	29	48	6	48
HLD	29	48	7	48
TAP	29	144	3
TAP	29	144	5
TAP	29	192	3
STR	29	192	5
SCL	29	192	5	96	48	2
XTP	29	288	0
XTP	29	336	0
XTP	30	0	0
HLD	30	96	0	48
HLD	30	96	1	48
HLD	30	192	0	48
HLD	30	192	1	48
TAP	30	288	2
TAP	30	288	4
HLD	30	336	2	48
HLD	30	336	4	48
HLD	31	48	0	48
HLD	31	48	1	48
TAP	31	144	2
TAP	31	144	4
STR	31	192	2
SCL	31	192	2	96	48	7
TAP	31	192	4
STR	31	288	6
SCL	31	288	6	96	48	3
XTP	32	0	2
HLD	32	96	0	48
HLD	32	96	1	48
HLD	32	192	0	48
HLD	32	192	1	48
TAP	32	288	2
TAP	32	288	4
TAP	32	336	2
TAP	32	336	4
TAP	33	48	4
TAP	33	48	6
STR	33	144	6
SCL	33	144	6	96	48	3
STR	33	144	7
SCR	33	144	7	96	48	2
TAP	33	192	6
TAP	33	192	7
BRK	34	0	2
BRK	34	0	4
HLD	34	96	0	48
HLD	34	96	1	48
HLD	34	192	0	48
HLD	34	192	1	48
TAP	34	288	2
TAP	34	288	4
HLD	34	336	2	48
HLD	34	336	4	48
HLD	35	48	0	48
STR	35	48	1
SCR	35	48	1	96	48	4
TAP	35	144	5
TAP	35	192	5
STR	35	288	6
SCL	35	288	6	96	48	3
STR	35	288	7
SUL	35	288	7	96	48	3
XTP	36	0	6
XTP	36	0	7
HLD	36	96	0	48
HLD	36	96	1	48
HLD	36	192	0	48
HLD	36	192	1	48
TAP	36	288	2
TAP	36	288	4
HLD	36	336	2	48
HLD	36	336	4	48
HLD	37	48	0	48
HLD	37	48	1	48
TAP	37	144	2
TAP	37	144	4
STR	37	192	2
SCL	37	192	2	96	48	7
TAP	37	192	4
XTP	37	288	6
XTP	37	336	6
XTP	38	0	6
HLD	38	96	6	48
HLD	38	96	7	48
HLD	38	192	6	48
HLD	38	192	7	48
TAP	38	288	3
TAP	38	288	5
HLD	38	336	3	48
HLD	38	336	5	48
STR	39	48	6
SCL	39	48	6	96	48	3
HLD	39	48	7	48
TAP	39	144	2
TAP	39	192	2
STR	39	288	0
SUR	39	288	0	96	48	4
STR	39	288	1
SCR	39	288	1	96	48	4
XTP	40	0	0
XTP	40	0	1
HLD	40	96	6	48
HLD	40	96	7	48
HLD	40	192	6	48
HLD	40	192	7	48
XTP	40	288	3
XTP	40	288	5
XTP	40	336	3
XTP	40	336	5
XST	41	48	2
SCL	41	48	2	96	144	5
XTP	41	48	4
TTP	41	144	3	B	0	M1
TTP	41	192	4	B	0	M1
HLD	42	0	4	768
STR	42	96	1
SCR	42	96	1	96	48	3
STR	42	288	5
SCR	42	288	5	96	48	7
STR	43	96	0
SCR	43	96	0	96	48	2
TAP	43	288	3
HLD	44	0	3	768
STR	44	96	6
SCL	44	96	6	96	48	4
STR	44	288	2
SCL	44	288	2	96	48	0
STR	45	96	7
SCL	45	96	7	96	48	5
TAP	45	288	4
HLD	46	0	5	768
STR	46	96	4
SCL	46	96	4	96	48	2
STR	46	288	1
SCL	46	288	1	96	48	7
STR	47	96	6
SCL	47	96	6	96	48	4
TAP	47	288	2
TAP	47	336	2
HLD	48	0	2	672
STR	48	96	3
SCR	48	96	3	96	48	5
STR	48	288	6
SCR	48	288	6	96	48	0
STR	49	96	1
SCR	49	96	1	96	48	3
TAP	49	288	4
TAP	50	0	4
TAP	50	0	5
TAP	50	96	3
TAP	50	96	6
TAP	50	144	5
TAP	50	168	4
TAP	50	192	5
TAP	50	216	4
TAP	50	240	5
TAP	50	288	2
TAP	50	312	3
TAP	50	336	2
TAP	50	360	3
TAP	51	0	2
TAP	51	48	6
TAP	51	72	4
TAP	51	96	6
TAP	51	144	1
TAP	51	168	3
TAP	51	192	1
HLD	51	240	2	48
HLD	51	288	3	48
HLD	51	336	4	48
TAP	52	0	5
TAP	52	96	1
TAP	52	96	4
TAP	52	144	2
TAP	52	168	3
TAP	52	192	2
TAP	52	216	3
TAP	52	240	2
TAP	52	288	5
TAP	52	312	4
TAP	52	336	5
TAP	52	360	4
TAP	53	0	5
TAP	53	48	1
TAP	53	72	3
TAP	53	96	1
TAP	53	144	6
TAP	53	168	4
TAP	53	192	6
TAP	53	240	0
TAP	53	240	7
TAP	53	288	1
TAP	53	288	6
TAP	53	336	2
TAP	53	336	5
XST	54	0	3
SCL	54	0	3	96	132	4
XST	54	0	4
SCR	54	0	4	96	132	3
XTP	54	96	3
XTP	54	96	4
TAP	54	288	0
TAP	54	288	7
STR	54	336	0
SCR	54	336	0	96	48	3
STR	54	336	7
SCL	54	336	7	96	48	4
BRK	55	144	1
BRK	55	144	6
BRK	55	192	1
BRK	55	192	6
STR	56	0	7
SCR	56	0	7	96	672	6
STR	56	96	0
SCR	56	96	0	96	576	6
STR	56	192	1
SCR	56	192	1	96	480	6
STR	56	288	2
SCR	56	288	2	96	384	6
STR	57	0	3
SCR	57	0	3	96	288	6
STR	57	96	4
SCR	57	96	4	96	192	6
STR	57	192	5
SCR	57	192	5	96	96	6
TTP	58	0	0	B	0	M1
TTP	58	48	1	B	0	M1
TTP	58	96	2	B	0	M1
TTP	58	144	3	B	0	M1
TTP	58	192	4	B	0	M1
TTP	58	240	5	B	0	M1
TTP	58	288	6	B	0	M1
TTP	58	336	7	B	0	M1
XTP	59	0	0
TAP	59	24	1
TAP	59	48	2
TAP	59	72	3
XTP	59	96	4
TAP	59	120	5
TAP	59	144	6
TAP	59	168	7
XST	59	192	0
SCL	59	192	0	96	48	5
SCR	59	192	0	96	48	3
XTP	59	240	1
XTP	59	240	7
XTP	59	288	0
XTP	60	0	4
XTP	60	0	5
TAP	60	48	6
TAP	60	96	4
TAP	60	96	5
TAP	60	144	3
TAP	60	192	4
TAP	60	192	6
TAP	60	240	7
TAP	60	264	0
TAP	60	288	7
XTP	60	336	0
XST	60	336	1
SCR	60	336	1	96	48	4
TAP	61	0	2
XST	61	48	0
SCL	61	48	0	96	48	5
XTP	61	48	1
TAP	61	96	7
XTP	61	144	0
XTP	61	144	1
TAP	61	192	2
TAP	61	240	3
TAP	61	288	5
TAP	61	312	4
TAP	61	336	5
TAP	62	0	4
TAP	62	0	6
TAP	62	48	2
TAP	62	96	3
TAP	62	96	4
TAP	62	144	5
TAP	62	192	1
TAP	62	192	3
TAP	62	240	0
TAP	62	264	7
TAP	62	288	0
XST	62	336	6
SCL	62	336	6	96	48	3
XTP	62	336	7
TAP	63	0	5
XTP	63	48	6
XST	63	48	7
SCR	63	48	7	96	48	2
TAP	63	96	0
XTP	63	144	6
XTP	63	144	7
TAP	63	192	5
TAP	63	240	5
TAP	63	288	3
TAP	63	312	2
TAP	63	336	1
TAP	63	360	0
TAP	64	0	6
TAP	64	0	7
TAP	64	48	5
TAP	64	96	6
TAP	64	96	7
TAP	64	144	0
TAP	64	192	5
TAP	64	192	7
TAP	64	240	4
TAP	64	264	3
TAP	64	288	4
XST	64	336	2
SCL	64	336	2	96	48	7
XTP	64	336	3
TAP	65	0	1
XTP	65	48	2
XST	65	48	3
SCR	65	48	3	96	48	6
TAP	65	96	4
XTP	65	144	2
XTP	65	144	3
TAP	65	192	1
TAP	65	240	0
TAP	65	288	6
TAP	65	312	7
TAP	65	336	6
TAP	66	0	5
TAP	66	0	7
TAP	66	48	1
TAP	66	96	0
TAP	66	96	7
TAP	66	144	6
TAP	66	192	0
TAP	66	192	2
TAP	66	240	3
TAP	66	264	4
TAP	66	288	3
XTP	66	336	4
XST	66	336	5
SCR	66	336	5	96	48	0
TAP	67	0	6
XST	67	48	4
SCL	67	48	4	96	48	1
XTP	67	48	5
TAP	67	96	3
XTP	67	144	4
XTP	67	144	5
TAP	67	192	6
TAP	67	240	6
TAP	67	288	0
TAP	67	312	1
TAP	67	336	2
TAP	67	360	3
XST	68	0	4
SCR	68	0	4	96	48	7
TAP	68	48	4
STR	68	96	0
SCR	68	96	0	96	48	3
TAP	68	144	0
STR	68	192	5
SCR	68	192	5	96	48	0
TAP	68	240	5
STR	68	288	1
SCR	68	288	1	96	48	4
TAP	68	336	1
STR	69	0	6
SCR	69	0	6	96	48	1
TAP	69	48	6
STR	69	96	2
SCR	69	96	2	96	48	5
TAP	69	144	2
TAP	69	192	7
TAP	69	240	7
TAP	69	288	3
TAP	69	288	7
TAP	69	312	6
TAP	69	336	5
TAP	69	360	4
STR	70	0	0
SCR	70	0	0	96	48	3
TAP	70	0	3
TAP	70	48	0
STR	70	96	4
SCR	70	96	4	96	48	7
TAP	70	144	4
STR	70	192	1
SCR	70	192	1	96	48	4
TAP	70	240	1
STR	70	288	5
SCR	70	288	5	96	48	0
TAP	70	336	5
STR	71	0	2
SCR	71	0	2	96	48	5
TAP	71	48	2
STR	71	96	6
SCR	71	96	6	96	48	1
TAP	71	144	6
TAP	71	192	3
TAP	71	240	3
TAP	71	288	3
TAP	71	288	7
TAP	71	312	2
TAP	71	336	1
TAP	71	360	0
STR	72	0	3
SCR	72	0	3	96	48	6
TAP	72	0	7
TAP	72	48	3
STR	72	96	7
SCR	72	96	7	96	48	2
TAP	72	144	7
STR	72	192	4
SCR	72	192	4	96	48	7
TAP	72	240	4
STR	72	288	0
SCR	72	288	0	96	48	3
TAP	72	336	0
STR	73	0	5
SCR	73	0	5	96	48	0
TAP	73	48	5
STR	73	96	1
SCR	73	96	1	96	48	4
TAP	73	144	1
TAP	73	192	7
TAP	73	240	7
TAP	73	288	3
TAP	73	288	7
TAP	73	312	6
TAP	73	336	5
TAP	73	360	4
XTP	74	0	0
XTP	74	0	3
TAP	74	48	1
XTP	74	96	4
XTP	74	96	7
TAP	74	144	6
XTP	74	192	0
XTP	74	192	3
TAP	74	240	1
TAP	74	288	3
TAP	74	288	4
XTP	74	336	1
XHO	74	336	6	336
TTP	75	48	0	B	0	M1
TTP	75	144	2	B	0	M1
TTP	75	192	3	B	0	M1
TTP	75	240	4	B	0	M1
TTP	75	288	5	B	0	M1
XTP	76	0	2
XTP	76	0	5
TAP	76	48	1
TAP	76	72	0
TAP	76	96	1
TAP	76	144	1
TAP	76	168	3
TAP	76	192	1
STR	76	240	1
SCR	76	240	1	96	48	4
TAP	76	264	0
TAP	76	288	1
STR	76	336	5
SCR	76	336	5	96	48	0
TAP	77	0	5
STR	77	48	2
SCR	77	48	2	96	48	5
TAP	77	96	2
TAP	77	144	7
TAP	77	192	7
TAP	77	288	0
TAP	77	288	7
TAP	77	312	6
TAP	77	336	5
TAP	77	360	4
XTP	78	0	2
TAP	78	48	1
TAP	78	72	3
TAP	78	96	1
TAP	78	144	1
TAP	78	168	0
TAP	78	192	1
STR	78	240	1
SCL	78	240	1	96	48	6
TAP	78	264	3
TAP	78	288	1
STR	78	336	5
SCL	78	336	5	96	48	2
TAP	79	0	5
TAP	79	48	0
TAP	79	96	0
TAP	79	144	7
XTP	79	192	0
XTP	79	192	7
TAP	79	216	1
TAP	79	240	2
TAP	79	264	3
XTP	79	288	7
TAP	79	312	6
TAP	79	336	5
TAP	79	360	4
XTP	80	0	0
TAP	80	48	6
TAP	80	72	7
TAP	80	96	6
TAP	80	144	6
TAP	80	168	4
TAP	80	192	6
STR	80	240	6
SCL	80	240	6	96	48	3
TAP	80	264	7
TAP	80	288	6
STR	80	336	2
SCL	80	336	2	96	48	7
TAP	81	0	2
STR	81	48	5
SCL	81	48	5	96	48	2
TAP	81	96	5
TAP	81	144	0
TAP	81	192	0
TAP	81	288	0
TAP	81	288	7
TAP	81	312	1
TAP	81	336	2
TAP	81	360	3
XTP	82	0	5
TAP	82	48	6
TAP	82	72	4
TAP	82	96	6
TAP	82	144	6
TAP	82	168	7
TAP	82	192	6
STR	82	240	6
SCR	82	240	6	96	48	1
TAP	82	264	4
TAP	82	288	6
TAP	82	336	3
XHO	83	48	2	240
TTP	83	144	2	B	0	M1
TTP	83	192	3	B	0	M1
TTP	83	240	4	B	0	M1
TTP	83	288	5	B	0	M1
XST	84	0	0
SCR	84	0	0	96	48	3
XTP	84	96	0
XST	84	96	5
SCR	84	96	5	96	48	0
XST	84	192	1
SCR	84	192	1	96	48	4
XTP	84	192	5
XTP	84	288	1
XST	84	288	6
SCR	84	288	6	96	48	1
XST	85	0	2
SCR	85	0	2	96	48	5
XTP	85	0	6
XTP	85	96	2
XST	85	96	7
SCR	85	96	7	96	48	2
XST	85	192	3
SCR	85	192	3	96	48	6
XTP	85	192	7
XTP	85	288	0
XTP	85	288	3
XST	86	0	0
SCR	86	0	0	96	48	3
XTP	86	48	0
XST	86	96	5
SCR	86	96	5	96	48	0
XTP	86	144	5
XST	86	192	1
SCR	86	192	1	96	48	4
XTP	86	240	1
XST	86	288	6
SCR	86	288	6	96	48	1
XTP	86	336	6
XST	87	0	2
SCR	87	0	2	96	48	5
XTP	87	48	2
XST	87	96	7
SCR	87	96	7	96	48	2
XTP	87	144	7
XST	87	192	3
SCR	87	192	3	96	48	6
XTP	87	240	3
XTP	87	288	0
XTP	87	336	0
HLD	88	0	0	48
HLD	88	48	1	48
HLD	88	96	2	48
HLD	88	144	3	48
HLD	88	192	4	48
HLD	88	240	5	48
HLD	88	288	6	48
HLD	88	336	7	48
XTP	89	0	0
TAP	89	24	1
TAP	89	48	2
TAP	89	72	3
XTP	89	96	4
TAP	89	120	5
TAP	89	144	6
TAP	89	168	7
XTP	89	192	0
TAP	89	204	1
TAP	89	216	2
TAP	89	228	3
TAP	89	240	4
TAP	89	252	5
TAP	89	264	6
TAP	89	276	7
XTP	89	288	0
TAP	89	300	1
TAP	89	312	2
TAP	89	324	3
TAP	89	336	4
TAP	89	348	5
TAP	89	360	6
TAP	89	372	7
XHO	90	0	0	672
TTP	90	96	2	B	0	M1
TTP	90	192	5	B	0	M1
TTP	90	288	1	B	0	M1
TTP	90	288	1	E	0	M1
TTP	90	336	6	B	0	M1
TTP	90	336	7	E	0	M1
TTP	91	48	0	C	0	M1
TTP	91	144	2	B	0	M1
TTP	91	192	3	B	0	M1
TTP	91	240	4	B	0	M1
TTP	91	288	5	B	0	M1
TTP	92	0	0	C	1	M1
BST	92	0	7
SCL	92	0	7	96	672	0
SCR	92	0	7	96	672	6

T_REC_TAP	371
T_REC_BRK	7
T_REC_XTP	119
T_REC_HLD	74
T_REC_XHO	4
T_REC_STR	62
T_REC_BST	1
T_REC_XST	36
T_REC_TTP	46
T_REC_THO	0
T_REC_SLD	101
T_REC_ALL	821
T_NUM_TAP	634
T_NUM_BRK	8
T_NUM_HLD	78
T_NUM_SLD	101
T_NUM_ALL	821
T_JUDGE_TAP	642
T_JUDGE_HLD	247
T_JUDGE_SLD	101
T_JUDGE_ALL	990
TTM_EACHPAIRS	149
TTM_SCR_TAP	317000
TTM_SCR_BRK	20800
TTM_SCR_HLD	78000
TTM_SCR_SLD	151500
TTM_SCR_ALL	567300
TTM_SCR_S	549550
TTM_SCR_SS	566500
TTM_RAT_ACV	10014

