VERSION	0.00.00	1.03.00
FES_MODE	0
BPM_DEF	175.000	175.000	175.000	175.000
MET_DEF	4	4
RESOLUTION	384
CLK_DEF	384
COMPATIBLE_CODE	MA2

BPM	0	0	175.000
MET	0	0	4	4

HLD	2	0	4	480
TAP	2	96	3
TAP	2	288	3
TAP	3	96	3
TAP	3	240	2
HLD	3	288	2	576
TAP	4	96	3
TAP	4	288	3
TAP	5	96	3
TAP	5	240	4
HLD	5	288	4	576
TAP	6	96	3
TAP	6	288	3
TAP	7	96	3
TAP	7	240	5
HLD	7	288	5	576
TAP	8	96	4
TAP	8	288	4
TAP	9	96	4
TAP	9	240	3
TAP	9	240	4
TAP	9	288	3
TAP	9	288	4
XTP	10	0	2
XHO	10	48	2	240
XTP	10	288	3
XHO	10	336	3	240
XTP	11	192	2
XTP	11	240	2
XTP	11	240	3
XTP	12	0	5
XHO	12	48	5	240
XTP	12	288	4
XHO	12	336	4	240
XTP	13	192	5
XTP	13	240	4
XTP	13	240	5
XTP	14	0	6
XHO	14	48	6	240
XTP	14	288	7
XHO	14	336	7	240
XTP	15	192	6
XTP	15	240	6
XTP	15	240	7
XTP	16	0	1
XHO	16	48	1	240
XTP	16	288	0
XHO	16	336	0	240
XTP	17	192	1
XTP	17	240	0
XTP	17	240	1
TAP	18	0	2
TAP	18	96	3
TAP	18	96	4
TAP	18	192	5
TAP	18	288	5
TAP	19	0	4
TAP	19	0	5
TAP	19	96	6
TAP	19	144	6
TAP	19	192	4
TAP	19	288	4
TAP	19	288	6
TAP	20	0	5
TAP	20	96	3
TAP	20	96	4
TAP	20	192	2
TAP	20	288	1
TAP	20	336	1
TAP	21	0	3
TAP	21	96	1
TAP	21	96	3
TAP	21	192	1
TAP	21	192	3
TAP	21	288	2
TAP	21	288	4
HLD	22	0	5	96
TAP	22	96	4
HLD	22	192	2	96
TAP	22	288	3
TAP	23	0	3
TAP	23	0	4
TAP	23	96	2
TAP	23	96	5
HLD	23	192	1	192
TAP	23	192	6
THO	24	0	0	384	C	0	M1
TAP	25	192	0
TAP	25	192	7
TAP	25	240	0
TAP	25	240	7
TAP	25	288	0
TAP	25	288	7
TAP	26	0	1
TAP	26	0	6
TAP	26	96	2
TAP	26	96	3
TAP	26	192	3
TAP	26	192	4
TAP	26	288	2
TAP	26	288	5
TAP	26	336	2
TAP	26	336	5
STR	27	48	3
SCL	27	48	3	96	72	0
STR	27	48	6
SCL	27	48	6	96	72	3
XTP	27	288	0
XTP	27	288	3
TAP	28	0	1
TAP	28	0	4
TAP	28	96	2
TAP	28	96	3
TAP	28	192	4
TAP	28	192	5
TAP	28	288	6
TAP	28	288	7
TAP	28	336	6
TAP	28	336	7
STR	29	48	0
SCR	29	48	0	96	72	3
STR	29	48	5
SCR	29	48	5	96	72	0
XTP	29	288	0
XTP	29	288	3
TAP	30	0	2
TAP	30	0	7
TAP	30	96	1
TAP	30	96	6
TAP	30	192	2
TAP	30	192	3
TAP	30	288	4
TAP	30	288	5
TAP	30	336	4
TAP	30	336	5
STR	31	48	3
SCL	31	48	3	96	72	0
STR	31	48	6
SCL	31	48	6	96	72	3
XTP	31	288	0
XTP	31	288	3
TAP	32	0	1
TAP	32	0	4
TAP	32	96	2
TAP	32	96	3
TAP	32	192	4
TAP	32	192	5
TAP	32	288	3
TAP	32	288	6
TAP	32	336	3
TAP	32	336	6
XTP	33	48	2
XTP	33	48	5
XTP	33	144	1
XTP	33	192	1
XTP	33	240	0
XTP	33	288	3
XTP	33	288	7
TAP	34	0	4
TAP	34	0	6
TAP	34	96	4
TAP	34	96	5
TAP	34	192	2
TAP	34	192	3
TAP	34	288	1
TAP	34	288	4
TAP	34	336	1
TAP	34	336	4
STR	35	48	2
SCR	35	48	2	96	72	5
STR	35	48	5
SCR	35	48	5	96	72	0
XTP	35	288	3
XTP	35	288	7
TAP	36	0	2
TAP	36	0	6
TAP	36	96	3
TAP	36	96	5
TAP	36	192	2
TAP	36	192	4
TAP	36	288	0
TAP	36	288	5
TAP	36	336	0
TAP	36	336	5
STR	37	48	1
SCR	37	48	1	96	72	4
STR	37	48	4
SCR	37	48	4	96	72	7
XTP	37	288	4
XTP	37	288	7
TAP	38	0	3
TAP	38	0	6
TAP	38	96	4
TAP	38	96	5
TAP	38	192	2
TAP	38	192	3
TAP	38	288	1
TAP	38	288	4
TAP	38	336	1
TAP	38	336	4
STR	39	48	0
SCR	39	48	0	96	72	3
STR	39	48	5
SCR	39	48	5	96	72	0
XTP	39	288	2
XTP	39	288	7
TAP	40	0	3
TAP	40	0	6
TAP	40	96	4
TAP	40	96	5
TAP	40	192	3
TAP	40	192	4
TAP	40	288	1
TAP	40	288	3
HLD	40	336	1	96
TAP	40	336	3
TAP	41	48	0
TAP	41	144	2
TAP	41	192	2
TAP	41	240	3
BRK	41	288	0
BRK	41	288	4
THO	42	0	0	384	C	0	M1
TAP	43	192	0
HLD	43	192	7	960
TTP	44	0	0	E	0	M1
TTP	44	192	0	C	0	M1
TTP	45	0	5	E	0	M1
TTP	45	192	5	B	0	M1
TTP	45	192	6	B	0	M1
HLD	46	0	0	1152
TTP	46	192	0	C	0	M1
TTP	47	0	3	E	0	M1
TTP	47	192	1	B	0	M1
TTP	47	192	2	B	0	M1
THO	48	0	0	384	C	0	M1
TAP	49	192	0
TAP	49	192	7
TAP	49	288	1
TAP	49	288	6
HLD	50	0	2	672
TAP	50	96	3
TAP	50	144	3
TAP	50	192	3
TAP	50	288	1
TAP	50	336	1
TAP	51	0	1
TAP	51	96	7
TAP	51	144	7
TAP	51	192	7
TAP	51	288	5
TAP	52	0	2
TAP	52	48	2
TAP	52	96	5
TAP	52	144	5
TAP	52	192	1
TAP	52	240	1
TAP	52	288	6
TAP	52	336	6
TAP	53	0	0
TAP	53	24	7
TAP	53	48	0
TAP	53	72	7
TAP	53	96	0
TAP	53	120	7
TAP	53	144	0
TAP	53	168	7
TAP	53	192	0
TAP	53	216	7
TAP	53	240	0
TAP	53	264	7
TAP	53	288	0
TAP	53	312	7
TAP	53	336	0
TAP	53	360	7
BRK	54	0	0
TAP	55	192	1
TAP	55	192	6
HLD	56	0	2	144
HLD	56	0	3	144
HLD	56	192	3	144
HLD	56	192	4	144
HLD	57	0	4	144
HLD	57	0	5	144
HLD	57	192	5	144
HLD	57	192	6	144
TAP	58	0	6
STR	58	0	7
SCR	58	0	7	96	288	6
BRK	59	0	0
TAP	59	192	2
TAP	59	192	6
TAP	59	240	2
TAP	59	240	6
TAP	59	288	2
TAP	59	288	6
STR	60	0	3
SCL	60	0	3	96	48	0
STR	60	96	6
SCL	60	96	6	96	48	3
XTP	60	192	0
XTP	60	288	1
XTP	60	288	3
TAP	61	0	3
TAP	61	0	4
TAP	61	96	4
TAP	61	96	6
TAP	61	192	0
TAP	61	192	7
TAP	61	288	2
TAP	61	288	3
STR	62	0	4
SCR	62	0	4	96	48	7
STR	62	96	1
SCR	62	96	1	96	48	4
XTP	62	192	7
XTP	62	288	4
XTP	62	288	6
TAP	63	0	3
TAP	63	0	4
TAP	63	96	1
TAP	63	96	3
TAP	63	192	0
TAP	63	192	7
TAP	63	288	4
TAP	63	288	5
STR	64	0	3
SCL	64	0	3	96	48	0
STR	64	96	6
SCL	64	96	6	96	48	3
XTP	64	192	0
XTP	64	288	1
XTP	64	288	3
TAP	65	0	3
TAP	65	0	4
TAP	65	96	4
TAP	65	96	6
TAP	65	192	0
TAP	65	192	7
TAP	65	288	1
TAP	65	288	3
TAP	66	0	4
STR	66	0	6
SI_	66	0	6	96	48	3
STR	66	96	2
SCL	66	96	2	96	144	5
XTP	66	192	4
TAP	66	288	4
STR	67	0	3
SI_	67	0	3	96	48	0
STR	67	0	4
SI_	67	0	4	96	48	7
BRK	67	288	1
BRK	67	288	6
STR	68	0	2
SCL	68	0	2	96	48	7
STR	68	96	5
SCL	68	96	5	96	48	2
XTP	68	192	7
XTP	68	288	1
XTP	68	288	2
TAP	69	0	3
TAP	69	0	4
TAP	69	96	5
TAP	69	96	6
TAP	69	192	0
TAP	69	192	7
TAP	69	288	1
TAP	69	288	3
STR	70	0	5
SCR	70	0	5	96	48	0
STR	70	96	2
SCR	70	96	2	96	48	5
XTP	70	192	0
XTP	70	288	5
XTP	70	288	6
TAP	71	0	3
TAP	71	0	4
TAP	71	96	1
TAP	71	96	2
TAP	71	192	0
TAP	71	192	7
TAP	71	288	4
TAP	71	288	6
STR	72	0	2
SCL	72	0	2	96	48	7
STR	72	96	5
SCL	72	96	5	96	48	2
XTP	72	192	7
XTP	72	288	1
XTP	72	288	2
TAP	73	0	3
TAP	73	0	4
TAP	73	96	5
TAP	73	96	6
TAP	73	192	0
TAP	73	192	7
TAP	73	288	2
TAP	73	288	3
STR	74	0	6
SI_	74	0	6	96	48	3
STR	74	96	1
SI_	74	96	1	96	48	4
STR	74	192	5
SI_	74	192	5	96	48	0
STR	74	288	2
SCL	74	288	2	96	192	5
TTP	75	0	0	C	1	M1
XTP	75	288	0
XTP	75	288	7
TAP	76	0	6
TAP	76	48	6
TAP	76	96	4
TAP	76	144	4
TAP	76	192	2
TAP	76	240	2
TAP	76	288	0
TAP	76	336	0
TAP	76	336	6
STR	77	48	1
SCR	77	48	1	96	72	4
STR	77	48	5
SCR	77	48	5	96	72	0
XTP	77	288	3
XTP	77	288	7
TAP	78	0	1
TAP	78	48	1
TAP	78	96	3
TAP	78	144	3
TAP	78	192	5
TAP	78	240	5
TAP	78	288	7
TAP	78	336	1
TAP	78	336	7
STR	79	48	2
SCL	79	48	2	96	72	7
STR	79	48	6
SCL	79	48	6	96	72	3
XTP	79	288	0
XTP	79	288	4
XTP	79	336	1
XTP	79	336	5
XTP	80	0	2
XHO	80	0	6	96
TAP	80	96	4
TAP	80	144	4
TAP	80	192	2
TAP	80	240	2
TAP	80	288	0
TAP	80	336	0
TAP	80	336	6
STR	81	48	1
SCR	81	48	1	96	72	4
STR	81	48	5
SCR	81	48	5	96	72	0
XTP	81	288	3
XTP	81	288	7
TAP	82	0	1
TAP	82	48	1
TAP	82	96	3
TAP	82	144	3
TAP	82	192	5
TAP	82	240	5
TAP	82	288	7
TAP	82	336	1
TAP	82	336	7
STR	83	48	2
SI_	83	48	2	96	48	7
STR	83	48	6
SI_	83	48	6	96	48	3
XTP	83	240	0
XTP	83	240	4
BRK	83	288	0
BRK	83	288	4
HLD	84	0	5	96
HLD	84	96	3	96
HLD	84	192	2	96
STR	84	288	0
SCR	84	288	0	96	192	7
SUR	84	288	0	96	192	7
XTP	85	288	1
XTP	85	288	7
HLD	86	0	2	96
HLD	86	96	4	96
HLD	86	192	5	96
STR	86	288	7
SCL	86	288	7	96	192	0
SUL	86	288	7	96	192	0
XTP	87	288	0
XTP	87	288	6
XTP	87	336	0
XTP	87	336	6
TAP	88	0	1
TAP	88	48	1
TAP	88	96	1
TAP	88	144	1
TAP	88	192	7
TAP	88	240	7
TAP	88	288	7
TAP	88	336	7
TAP	89	0	0
TAP	89	24	6
TAP	89	48	0
TAP	89	72	6
TAP	89	96	0
TAP	89	120	6
TAP	89	144	0
TAP	89	168	6
TAP	89	192	1
TAP	89	216	7
TAP	89	240	1
TAP	89	264	7
TAP	89	288	1
TAP	89	312	7
TAP	89	336	1
TAP	89	360	7
BRK	90	0	0
TAP	90	288	0
TAP	90	288	7
TAP	90	336	0
TAP	90	336	7
TAP	91	48	3
TAP	91	48	4
TAP	91	144	2
TAP	91	144	3
TAP	91	192	2
STR	91	192	3
SI_	91	192	3	96	48	7
STR	91	288	0
SCR	91	288	0	96	768	6
BRK	92	0	6

T_REC_TAP	305
T_REC_BRK	10
T_REC_XTP	77
T_REC_HLD	25
T_REC_XHO	9
T_REC_STR	45
T_REC_BST	0
T_REC_XST	0
T_REC_TTP	10
T_REC_THO	3
T_REC_SLD	47
T_REC_ALL	531
T_NUM_TAP	437
T_NUM_BRK	10
T_NUM_HLD	37
T_NUM_SLD	47
T_NUM_ALL	531
T_JUDGE_TAP	447
T_JUDGE_HLD	216
T_JUDGE_SLD	47
T_JUDGE_ALL	710
TTM_EACHPAIRS	143
TTM_SCR_TAP	218500
TTM_SCR_BRK	26000
TTM_SCR_HLD	37000
TTM_SCR_SLD	70500
TTM_SCR_ALL	352000
TTM_SCR_S	340500
TTM_SCR_SS	351000
TTM_RAT_ACV	10028

