VERSION	0.00.00	1.03.00
FES_MODE	0
BPM_DEF	175.000	175.000	175.000	175.000
MET_DEF	4	4
RESOLUTION	384
CLK_DEF	384
COMPATIBLE_CODE	MA2

BPM	0	0	175.000
MET	0	0	4	4

HLD	2	0	2	384
HLD	3	0	3	384
HLD	4	0	4	384
TAP	5	0	5
TAP	5	192	4
TAP	5	192	5
HLD	6	0	6	384
HLD	7	0	7	384
HLD	8	0	0	384
TAP	9	0	1
TAP	9	192	0
TAP	9	192	7
XST	10	0	1
SI_	10	0	1	96	144	5
STR	11	0	6
SI_	11	0	6	96	144	3
STR	12	0	2
SI_	12	0	2	96	144	7
TAP	13	0	6
TAP	13	96	6
TAP	13	192	7
TAP	13	288	7
STR	14	0	0
SI_	14	0	0	96	144	3
STR	15	0	4
SI_	15	0	4	96	144	0
STR	16	0	1
SI_	16	0	1	96	144	5
TAP	17	0	6
TAP	17	96	6
TAP	17	192	0
TAP	17	192	7
TAP	18	0	1
TAP	18	96	1
TAP	18	192	0
TAP	18	192	1
TAP	19	0	6
TAP	19	96	6
TAP	19	192	6
TAP	19	192	7
TAP	20	0	1
TAP	20	96	1
TAP	20	192	0
TAP	20	192	1
TAP	21	0	7
TAP	21	96	7
TAP	21	192	0
TAP	21	192	6
TAP	22	0	1
TAP	22	96	1
TAP	22	192	2
TAP	22	288	2
TAP	23	0	3
TAP	23	96	4
TAP	23	192	5
TAP	23	288	6
BST	24	0	0
SI_	24	0	0	96	144	3
BST	24	0	7
SI_	24	0	7	96	144	4
TAP	25	0	3
TAP	25	0	4
TAP	25	96	3
TAP	25	96	4
BRK	25	192	2
BRK	25	192	5
TAP	26	0	6
TAP	26	96	6
TAP	26	192	6
TAP	26	192	7
TAP	26	288	6
TAP	26	288	7
TAP	27	0	5
TAP	27	96	4
TAP	27	192	3
TAP	27	192	5
TAP	28	0	2
TAP	28	96	2
TAP	28	192	2
TAP	28	192	3
TAP	28	288	2
TAP	28	288	3
TAP	29	0	1
TAP	29	96	0
TAP	29	192	0
TAP	29	192	7
TAP	30	0	1
TAP	30	96	1
TAP	30	192	0
TAP	30	192	1
TAP	30	288	0
TAP	30	288	1
TAP	31	0	2
TAP	31	96	3
TAP	31	192	2
TAP	31	192	4
TAP	32	0	5
TAP	32	96	5
TAP	32	192	4
TAP	32	192	5
TAP	32	288	4
TAP	32	288	5
TAP	33	0	6
TAP	33	96	0
TAP	33	96	7
BRK	33	192	1
BRK	33	192	6
TAP	34	0	2
TAP	34	96	2
TAP	34	96	3
TAP	34	192	2
TAP	34	288	2
TAP	34	288	3
TAP	35	0	1
TAP	35	96	0
TAP	35	192	1
TAP	35	192	7
TAP	36	0	6
TAP	36	96	6
TAP	36	96	7
TAP	36	192	6
TAP	36	288	6
TAP	36	288	7
TAP	37	0	5
TAP	37	96	4
TAP	37	192	3
TAP	37	192	5
TAP	38	0	5
TAP	38	96	4
TAP	38	96	5
TAP	38	192	5
TAP	38	288	4
TAP	38	288	5
TAP	39	0	6
TAP	39	96	7
TAP	39	192	0
TAP	39	192	6
TAP	40	0	1
TAP	40	96	0
TAP	40	96	1
TAP	40	192	1
TAP	40	288	0
TAP	40	288	1
BRK	41	0	2
BRK	41	0	7
STR	42	0	6
SI_	42	0	6	96	144	3
TAP	43	0	2
TAP	43	96	2
TAP	43	192	2
TAP	43	192	3
STR	44	0	1
SI_	44	0	1	96	144	4
TAP	45	0	5
TAP	45	96	5
TAP	45	192	4
TAP	45	192	5
STR	46	0	5
SI_	46	0	5	96	144	0
TAP	47	0	1
TAP	47	96	1
TAP	47	192	0
TAP	47	192	1
STR	48	0	2
SI_	48	0	2	96	144	7
TAP	49	0	6
TAP	49	96	6
XTP	49	192	0
XTP	49	192	7
TTP	50	0	6	B	0	L1
TTP	50	192	5	B	0	L1
TTP	51	0	4	B	0	L1
TTP	51	192	3	B	0	L1
TTP	52	0	2	B	0	L1
TTP	52	192	1	B	0	L1
TTP	53	0	0	B	0	L1
TTP	53	192	7	B	0	L1
TTP	54	0	0	C	1	L1
TTP	54	0	2	B	0	L1
TTP	54	0	5	B	0	L1
STR	56	0	0
SXL	56	0	0	96	432	3
STR	56	0	7
SXR	56	0	7	96	432	4
TAP	58	0	2
TAP	58	96	3
TAP	58	192	4
TAP	58	288	5
TAP	59	0	3
TAP	59	0	4
TAP	59	48	3
TAP	59	48	4
TAP	59	96	3
TAP	59	96	4
BRK	59	192	2
BRK	59	192	5
TAP	60	0	6
TAP	60	0	7
TAP	60	96	6
TAP	60	96	7
TAP	60	192	0
TAP	60	192	5
TAP	60	288	1
TAP	60	336	1
TAP	61	0	1
TAP	61	96	0
TAP	61	96	1
TAP	61	192	2
TAP	61	192	7
TAP	61	288	6
TAP	61	336	6
TAP	62	0	6
TAP	62	96	4
TAP	62	96	5
TAP	62	192	3
TAP	62	192	6
TAP	62	288	2
TAP	62	336	2
TAP	63	0	2
TAP	63	96	2
TAP	63	96	3
TAP	63	192	1
TAP	63	192	4
TAP	63	288	0
TAP	63	336	0
TAP	64	0	0
TAP	64	96	1
TAP	64	96	7
TAP	64	192	2
TAP	64	192	6
TAP	64	288	3
TAP	64	336	3
TAP	65	0	3
TAP	65	96	2
TAP	65	96	4
TAP	65	192	1
TAP	65	192	5
TAP	65	288	0
TAP	65	336	0
TAP	66	0	0
TAP	66	96	1
TAP	66	96	7
TAP	66	192	2
TAP	66	192	6
TAP	66	288	3
TAP	66	288	5
TAP	66	336	3
TAP	66	336	5
TAP	67	0	3
TAP	67	0	5
TAP	67	96	2
TAP	67	96	4
BRK	67	192	1
BRK	67	192	6
TAP	68	0	0
TAP	68	0	1
TAP	68	96	0
TAP	68	96	1
TAP	68	192	2
TAP	68	192	7
TAP	68	288	6
TAP	68	336	6
TAP	69	0	6
TAP	69	96	6
TAP	69	96	7
TAP	69	192	0
TAP	69	192	5
TAP	69	288	1
TAP	69	336	1
TAP	70	0	1
TAP	70	96	2
TAP	70	96	3
TAP	70	192	1
TAP	70	192	4
TAP	70	288	5
TAP	70	336	5
TAP	71	0	5
TAP	71	96	4
TAP	71	96	5
TAP	71	192	3
TAP	71	192	6
TAP	71	288	7
TAP	71	336	7
TAP	72	0	7
TAP	72	96	0
TAP	72	96	6
TAP	72	192	1
TAP	72	192	5
TAP	72	288	4
TAP	72	336	4
TAP	73	0	4
TAP	73	96	3
TAP	73	96	5
TAP	73	192	2
TAP	73	192	6
TAP	73	288	7
TAP	73	336	7
TAP	74	0	7
TAP	74	96	0
TAP	74	96	6
TAP	74	192	1
TAP	74	192	5
TAP	74	288	2
TAP	74	288	4
TAP	74	336	2
TAP	74	336	4
STR	75	0	2
SI_	75	0	2	96	144	7
STR	75	0	4
SI_	75	0	4	96	144	7
HLD	76	0	1	96
TAP	76	96	0
TAP	76	192	2
TAP	76	192	7
TAP	76	288	6
TAP	76	336	6
HLD	77	0	6	96
TAP	77	96	7
TAP	77	192	0
TAP	77	192	5
TAP	77	288	1
TAP	77	288	4
HLD	78	0	2	96
TAP	78	96	3
TAP	78	192	1
TAP	78	192	4
TAP	78	288	5
TAP	78	336	5
HLD	79	0	5	96
TAP	79	96	4
TAP	79	192	3
TAP	79	192	6
TAP	79	288	2
TAP	79	288	7
HLD	80	0	1	96
TAP	80	96	0
TAP	80	192	2
TAP	80	192	7
TAP	80	288	6
TAP	80	336	6
HLD	81	0	6	96
TAP	81	96	7
TAP	81	192	0
TAP	81	192	5
TAP	81	288	1
TAP	81	288	4
HLD	82	0	2	96
TAP	82	96	3
TAP	82	192	1
TAP	82	192	4
TAP	82	288	5
TAP	82	336	5
BST	83	0	3
SI_	83	0	3	96	144	0
BST	83	0	4
SI_	83	0	4	96	144	7
TAP	84	0	6
TAP	84	96	6
TAP	84	96	7
TAP	84	192	5
TAP	84	288	4
TAP	84	288	5
TAP	85	0	2
TAP	85	96	2
TAP	85	96	3
TAP	85	192	1
TAP	85	288	0
TAP	85	288	1
TAP	86	0	2
TAP	86	96	2
TAP	86	96	3
TAP	86	192	5
TAP	86	288	4
TAP	86	288	5
TAP	87	0	6
TAP	87	96	6
TAP	87	96	7
TAP	87	192	1
TAP	87	288	0
TAP	87	288	7
TAP	88	0	0
TAP	88	0	7
TAP	88	96	1
TAP	88	96	6
TAP	88	192	2
TAP	88	192	5
TAP	88	288	3
TAP	88	288	4
TAP	89	0	2
TAP	89	0	5
TAP	89	48	2
TAP	89	48	5
TAP	89	96	2
TAP	89	96	5
TAP	89	192	1
TAP	89	192	6
TAP	89	240	1
TAP	89	240	6
TAP	89	288	1
TAP	89	288	6
XST	90	0	0
SXL	90	0	0	96	432	3
XST	90	0	7
SXR	90	0	7	96	432	4
THO	92	0	0	768	C	0	L1

T_REC_TAP	328
T_REC_BRK	10
T_REC_XTP	2
T_REC_HLD	13
T_REC_XHO	0
T_REC_STR	13
T_REC_BST	4
T_REC_XST	3
T_REC_TTP	11
T_REC_THO	1
T_REC_SLD	20
T_REC_ALL	405
T_NUM_TAP	357
T_NUM_BRK	14
T_NUM_HLD	14
T_NUM_SLD	20
T_NUM_ALL	405
T_JUDGE_TAP	371
T_JUDGE_HLD	78
T_JUDGE_SLD	20
T_JUDGE_ALL	469
TTM_EACHPAIRS	113
TTM_SCR_TAP	178500
TTM_SCR_BRK	36400
TTM_SCR_HLD	14000
TTM_SCR_SLD	30000
TTM_SCR_ALL	258900
TTM_SCR_S	249800
TTM_SCR_SS	257500
TTM_RAT_ACV	10054

