VERSION	0.00.00	1.03.00
FES_MODE	0
BPM_DEF	175.000	175.000	175.000	175.000
MET_DEF	4	4
RESOLUTION	384
CLK_DEF	384
COMPATIBLE_CODE	MA2

BPM	0	0	175.000
MET	0	0	4	4

TAP	2	0	0
TAP	4	0	0
TAP	6	0	7
TAP	8	0	7
HLD	10	0	0	288
HLD	12	0	1	288
HLD	14	0	2	288
HLD	16	0	3	288
TAP	18	0	4
TAP	19	0	4
TAP	20	0	5
TAP	21	0	5
TAP	22	0	6
TAP	23	0	6
HLD	24	0	0	384
HLD	24	0	7	384
BRK	26	0	7
TAP	26	192	7
TAP	27	0	7
TAP	28	0	6
TAP	28	192	6
TAP	29	0	6
TAP	30	0	5
TAP	30	192	5
TAP	31	0	5
TAP	32	0	4
TAP	32	192	4
TAP	33	0	3
TAP	33	0	4
TAP	34	0	3
TAP	34	192	3
TAP	35	0	3
TAP	36	0	2
TAP	36	192	2
TAP	37	0	2
TAP	38	0	1
TAP	38	192	1
TAP	39	0	1
TAP	40	0	0
TAP	40	192	0
TAP	41	0	0
TAP	41	0	7
STR	42	0	0
SI_	42	0	0	96	288	3
STR	44	0	7
SI_	44	0	7	96	288	4
STR	46	0	1
SI_	46	0	1	96	288	4
STR	48	0	6
SI_	48	0	6	96	288	2
TAP	50	0	0
TAP	50	192	0
TAP	51	0	0
TAP	51	0	1
TAP	52	0	2
TAP	52	192	2
TAP	53	0	2
TAP	53	0	3
HLD	54	0	3	384
HLD	54	0	4	384
TTP	56	0	3	B	0	L1
TTP	56	0	4	B	0	L1
TTP	57	0	2	B	0	L1
TTP	57	0	5	B	0	L1
THO	58	0	0	384	C	0	L1
BRK	60	0	7
TAP	60	192	7
TAP	61	0	6
TAP	61	192	6
TAP	62	0	5
TAP	62	192	5
XTP	63	0	4
XTP	63	0	5
TAP	64	0	3
TAP	64	192	3
TAP	65	0	2
TAP	65	192	2
TAP	66	0	1
TAP	66	192	1
XTP	67	0	0
XTP	67	0	1
TAP	68	0	0
TAP	68	96	0
TAP	68	192	0
TAP	69	0	1
TAP	69	192	1
TAP	70	0	2
TAP	70	96	2
TAP	70	192	2
TAP	71	0	3
TAP	71	0	4
TAP	71	192	3
TAP	71	192	4
TAP	72	0	4
TAP	72	96	4
TAP	72	192	4
TAP	73	0	5
TAP	73	192	5
TAP	74	0	6
TAP	74	96	6
TAP	74	192	6
XTP	75	0	0
XTP	75	0	7
BRK	76	0	7
TAP	76	96	7
TAP	76	192	7
TAP	77	0	6
TAP	77	0	7
TAP	77	192	6
TAP	77	192	7
TAP	78	0	5
TAP	78	96	5
TAP	78	192	5
TAP	79	0	4
TAP	79	0	5
TAP	79	192	4
TAP	79	192	5
TAP	80	0	3
TAP	80	96	3
TAP	80	192	3
TAP	81	0	2
TAP	81	0	3
TAP	81	192	2
TAP	81	192	3
TAP	82	0	1
TAP	82	96	1
TAP	82	192	1
XTP	83	0	0
XTP	83	0	1
BRK	84	0	0
TAP	84	96	0
TAP	84	192	0
TAP	85	0	1
TAP	85	96	1
TAP	85	192	0
TAP	85	192	1
TAP	86	0	2
TAP	86	96	2
TAP	86	192	2
TAP	87	0	3
TAP	87	96	3
TAP	87	192	3
TAP	87	192	4
TAP	88	0	5
TAP	88	96	5
TAP	88	192	5
TAP	89	0	6
TAP	89	96	6
TAP	89	192	6
TAP	89	192	7
STR	90	0	0
SI_	90	0	0	96	288	3
STR	90	0	7
SI_	90	0	7	96	288	4
TTP	92	0	0	C	1	L1

T_REC_TAP	117
T_REC_BRK	4
T_REC_XTP	8
T_REC_HLD	8
T_REC_XHO	0
T_REC_STR	6
T_REC_BST	0
T_REC_XST	0
T_REC_TTP	5
T_REC_THO	1
T_REC_SLD	6
T_REC_ALL	155
T_NUM_TAP	136
T_NUM_BRK	4
T_NUM_HLD	9
T_NUM_SLD	6
T_NUM_ALL	155
T_JUDGE_TAP	140
T_JUDGE_HLD	64
T_JUDGE_SLD	6
T_JUDGE_ALL	210
TTM_EACHPAIRS	22
TTM_SCR_TAP	68000
TTM_SCR_BRK	10400
TTM_SCR_HLD	9000
TTM_SCR_SLD	9000
TTM_SCR_ALL	96400
TTM_SCR_S	93150
TTM_SCR_SS	96000
TTM_RAT_ACV	10041

