VERSION	0.00.00	1.03.00
FES_MODE	0
BPM_DEF	182.000	182.000	182.000	 84.000
MET_DEF	4	4
RESOLUTION	384
CLK_DEF	384
COMPATIBLE_CODE	MA2

BPM	0	0	182.000
BPM	92	0	172.000
BPM	92	288	182.000
BPM	93	0	126.000
BPM	93	96	 92.000
BPM	94	0	 84.000
MET	0	0	4	4
MET	28	24	4	4

TTP	1	0	1	B	0	M1
TTP	1	0	2	E	0	M1
TTP	1	0	6	B	0	M1
TTP	1	0	6	E	0	M1
TTP	1	96	3	B	0	M1
TTP	1	96	3	E	0	M1
TTP	1	96	4	B	0	M1
TTP	1	96	5	E	0	M1
TTP	1	192	2	B	0	M1
TTP	1	240	5	B	0	M1
TTP	1	288	4	E	0	M1
TTP	1	336	0	C	0	M1
TTP	2	0	1	E	0	M1
TTP	2	48	7	E	0	M1
TTP	2	96	2	E	0	M1
TTP	2	144	6	E	0	M1
TTP	2	192	3	E	0	M1
TTP	2	216	3	B	0	M1
TTP	2	240	4	B	0	M1
TTP	2	264	5	E	0	M1
TTP	2	288	0	C	0	M1
HLD	3	0	6	96
TAP	3	96	5
TAP	3	144	5
TAP	3	240	4
TAP	3	240	5
TAP	3	336	4
TAP	3	336	6
TTP	4	48	3	E	0	M1
TTP	4	96	5	E	0	M1
TTP	4	144	4	E	0	M1
TTP	4	192	6	E	0	M1
TTP	4	240	2	E	0	M1
TTP	4	288	0	C	0	M1
HLD	5	0	1	96
TAP	5	96	2
TAP	5	144	2
TAP	5	240	2
TAP	5	240	3
HLD	5	336	1	96
TAP	5	336	3
TTP	6	48	4	E	0	M1
TTP	6	72	5	E	0	M1
TTP	6	96	6	E	0	M1
HLD	6	144	3	96
TAP	6	240	6
TAP	6	288	6
HLD	6	336	4	96
TAP	7	48	5
HLD	7	96	3	96
TAP	7	192	4
HLD	7	240	2	96
TAP	7	336	3
HLD	8	0	1	96
TAP	8	96	2
HLD	8	144	0	96
TAP	8	240	7
BST	8	288	1
SXR	8	288	1	96	624	4
BST	8	288	6
SXL	8	288	6	96	624	3
TAP	11	0	3
TAP	11	0	4
XTP	11	96	5
TAP	11	144	5
TAP	11	192	4
STR	11	240	3
SI_	11	240	3	96	48	7
TAP	11	240	5
STR	11	336	6
SI_	11	336	6	96	48	2
STR	12	48	0
SI_	12	48	0	96	48	5
STR	12	144	3
SI_	12	144	3	96	48	7
XST	12	240	2
SI_	12	240	2	96	48	5
XTP	12	336	7
TAP	13	48	6
TAP	13	96	5
TAP	13	144	4
TAP	13	192	3
TAP	13	192	5
TAP	13	240	4
TAP	13	288	2
HLD	13	336	1	96
TAP	14	48	3
TAP	14	96	2
HLD	14	144	4	96
XTP	14	240	2
HLD	14	288	1	96
TAP	14	288	3
XHO	15	0	3	96
TAP	15	96	1
XTP	15	144	3
TAP	15	192	2
TAP	15	192	4
STR	15	240	5
SI_	15	240	5	96	48	2
STR	15	336	1
SI_	15	336	1	96	48	4
STR	16	48	7
SI_	16	48	7	96	48	2
XTP	16	144	4
TAP	16	240	3
TAP	16	288	4
HLD	16	336	2	96
XTP	17	0	3
TAP	17	48	4
TAP	17	96	5
XHO	17	144	3	96
TAP	17	144	6
TAP	17	240	5
TAP	17	288	4
HLD	17	336	6	96
XTP	18	0	4
TAP	18	48	3
TAP	18	96	2
XTP	18	144	1
XTP	18	144	4
XTP	18	240	3
XHO	18	240	6	144
BST	19	0	7
SI_	19	0	7	96	624	3
STR	20	192	7
SI_	20	192	7	96	48	3
BRK	20	288	7
XTP	21	0	1
XTP	21	0	4
STR	21	48	2
SI_	21	48	2	96	48	5
TAP	21	96	3
XTP	21	144	2
TAP	21	144	4
STR	21	240	6
SI_	21	240	6	96	48	2
TAP	21	288	4
TAP	21	336	3
XTP	21	336	6
STR	22	48	1
SI_	22	48	1	96	48	5
TAP	22	96	3
XTP	22	144	1
TAP	22	144	4
STR	22	240	7
SI_	22	240	7	96	48	3
TAP	22	288	5
TAP	22	336	4
XTP	22	336	7
TAP	23	48	2
TAP	23	96	2
TAP	23	144	4
TAP	23	192	3
TAP	23	192	5
TAP	23	240	4
HLD	23	240	6	96
HLD	23	336	4	96
TAP	24	48	5
TAP	24	96	5
TAP	24	144	4
TAP	24	192	6
TAP	24	224	2
TAP	24	256	4
TAP	24	288	1
TAP	24	320	3
THO	24	352	0	344	C	0	M1
TAP	25	48	7
TAP	25	144	7
TAP	25	240	6
TAP	25	336	6
TAP	26	48	5
TAP	26	96	5
TAP	26	120	4
TAP	26	144	6
TAP	26	168	3
TAP	26	192	5
TAP	26	240	6
TAP	26	264	7
TAP	26	288	5
TAP	26	312	0
TAP	26	336	6
XTP	27	0	1
XTP	27	0	5
TAP	27	72	4
HLD	27	96	4	96
HLD	27	192	2	96
TAP	27	288	3
TAP	27	320	1
TAP	27	352	3
STR	28	0	0
SI_	28	0	0	96	48	5
TAP	28	96	4
HLD	28	144	4	240
TAP	28	240	6
TAP	28	288	7
TAP	28	336	0
HLD	29	0	1	192
TTP	29	48	3	E	0	M1
TTP	29	72	2	E	0	M1
TTP	29	96	1	E	0	M1
HLD	29	192	7	192
TTP	29	240	7	E	0	M1
TTP	29	264	6	E	0	M1
TTP	29	288	5	E	0	M1
HLD	30	0	2	64
HLD	30	64	3	64
HLD	30	128	4	64
HLD	30	192	5	64
HLD	30	256	6	64
TAP	30	320	7
TAP	31	0	0
TAP	31	0	5
TAP	31	48	2
TAP	31	96	4
TAP	31	144	3
TAP	31	144	7
TAP	31	192	5
TAP	31	240	1
TAP	31	288	0
TAP	31	288	4
TAP	31	336	6
TAP	32	0	2
TAP	32	48	1
TAP	32	48	4
STR	32	96	2
SI_	32	96	2	96	48	7
STR	32	96	3
SI_	32	96	3	96	48	7
TAP	32	192	2
STR	32	192	3
SCL	32	192	3	96	576	3
SCR	32	192	3	96	576	3
BRK	32	288	3
TAP	34	288	2
TAP	34	312	4
TAP	34	336	2
TAP	34	360	4
HLD	35	0	1	48
TAP	35	48	3
TAP	35	72	2
TAP	35	96	4
TAP	35	120	3
TAP	35	168	3
HLD	35	192	6	48
TAP	35	240	4
TAP	35	264	5
TAP	35	288	3
TAP	35	312	4
TAP	35	360	4
HLD	36	0	1	48
TAP	36	48	3
TAP	36	72	2
TAP	36	96	4
TAP	36	120	3
TAP	36	168	3
HLD	36	192	6	48
TAP	36	240	4
TAP	36	264	5
TAP	36	288	3
TAP	36	312	4
TAP	36	360	4
HLD	37	0	1	48
TAP	37	48	3
TAP	37	72	2
TAP	37	96	4
TAP	37	120	3
HLD	37	144	5	48
TAP	37	192	4
TAP	37	216	5
TAP	37	240	3
TAP	37	264	4
HLD	37	288	2	48
TAP	37	336	3
TAP	37	360	2
TAP	38	0	4
TAP	38	24	2
TAP	38	48	4
TAP	38	72	2
TAP	38	96	4
TAP	38	120	2
XTP	38	144	5
TAP	38	168	2
TAP	38	192	4
XTP	38	216	1
TAP	38	240	4
TAP	38	264	2
XHO	38	288	5	48
TAP	38	336	2
TAP	38	360	4
HLD	39	0	1	48
TAP	39	48	3
TAP	39	72	2
TAP	39	96	4
TAP	39	120	3
TAP	39	168	3
HLD	39	192	6	48
TAP	39	240	4
TAP	39	264	5
TAP	39	288	3
TAP	39	312	4
TAP	39	360	4
XHO	40	0	1	48
TAP	40	48	3
TAP	40	72	2
TAP	40	96	4
TAP	40	120	3
XHO	40	144	6	48
TAP	40	192	3
TAP	40	216	5
TAP	40	240	1
TAP	40	264	3
XHO	40	288	0	48
TAP	40	336	3
XTP	41	0	2
XTP	41	0	4
XTP	41	48	2
XTP	41	48	4
XTP	41	96	2
XTP	41	96	4
TAP	41	144	1
TAP	41	168	3
TAP	41	192	2
XHO	41	216	4	48
TAP	41	264	3
XHO	41	288	5	48
TAP	41	336	3
TAP	41	360	5
TAP	42	0	4
XHO	42	24	6	48
TAP	42	72	4
XHO	42	96	5	48
TAP	42	144	3
TAP	42	168	4
TAP	42	192	3
TAP	42	216	2
TAP	42	240	1
TAP	42	264	0
TAP	42	288	7
TAP	42	312	6
TAP	42	336	5
TAP	42	360	4
STR	43	0	3
SI_	43	0	3	96	48	0
STR	43	96	3
SCR	43	96	3	96	144	1
TAP	43	96	4
XTP	43	192	5
STR	44	0	7
SI_	44	0	7	96	48	2
TAP	44	96	1
STR	44	96	7
SCL	44	96	7	96	144	1
XTP	44	192	3
STR	45	0	0
SI_	45	0	0	96	48	5
STR	45	96	0
SCR	45	96	0	96	144	6
TAP	45	96	6
XTP	45	192	4
TAP	45	288	7
HLD	45	336	7	96
TAP	46	48	5
TAP	46	96	4
TAP	46	144	3
TAP	46	144	5
XTP	46	192	2
TAP	46	192	4
TAP	46	240	1
TAP	46	264	3
TAP	46	288	1
TAP	46	336	2
TAP	46	336	4
TAP	47	0	3
HLD	47	0	5	96
TAP	47	96	4
TAP	47	144	5
HLD	47	192	4	96
TAP	47	240	5
STR	47	288	6
SI_	47	288	6	96	48	2
TAP	48	0	4
TAP	48	0	6
STR	48	48	3
SI_	48	48	3	96	48	5
STR	48	144	2
SCL	48	144	2	96	96	7
TAP	48	144	3
TAP	48	240	6
TAP	48	288	6
TAP	48	336	5
HLD	49	0	4	96
TAP	49	96	3
TAP	49	128	5
TAP	49	160	5
TAP	49	192	1
TAP	49	224	3
TAP	49	256	3
STR	49	288	6
SI_	49	288	6	96	48	0
TAP	49	320	4
TAP	49	352	4
STR	50	0	6
SI_	50	0	6	96	48	4
TAP	50	96	2
STR	50	96	6
SCR	50	96	6	96	144	3
TAP	50	192	3
TAP	50	192	6
XTP	51	0	2
XTP	51	0	6
TAP	51	96	3
TAP	51	96	5
TAP	51	144	4
TAP	51	192	3
TAP	51	192	5
TAP	51	288	2
TAP	51	288	6
TAP	51	336	6
TAP	52	0	4
TAP	52	0	5
TAP	52	48	4
TAP	52	96	5
TAP	52	144	3
TAP	52	192	3
TAP	52	192	5
TAP	52	240	3
TAP	52	288	6
TAP	52	336	2
TAP	53	0	2
TAP	53	0	6
TAP	53	96	3
HLD	53	96	4	96
TAP	53	128	3
TAP	53	160	3
TAP	53	192	3
HLD	53	288	1	96
TAP	53	288	5
TAP	53	320	5
TAP	53	352	5
TAP	54	0	5
HLD	54	96	6	96
TAP	54	96	7
TAP	54	128	7
TAP	54	160	7
STR	54	192	7
SCL	54	192	7	96	48	4
SCR	54	192	7	96	48	2
STR	54	288	7
SF_	54	288	7	96	48	3
BRK	55	0	7
TAP	55	96	0
TAP	55	144	1
STR	55	144	3
SCL	55	144	3	96	48	0
TAP	55	240	3
TAP	55	240	5
STR	55	288	7
SCL	55	288	7	96	48	4
TAP	56	0	2
TAP	56	0	7
STR	56	48	0
SCR	56	48	0	96	48	3
TAP	56	144	0
TAP	56	144	5
HLD	56	192	7	96
TAP	56	288	3
XTP	56	348	6
XST	56	360	4
SI_	56	360	4	96	24	7
XTP	56	372	5
BRK	57	60	1
BRK	57	60	4
STR	57	132	2
SI_	57	132	2	96	24	5
BRK	57	240	6
STR	57	312	0
SF_	57	312	0	96	24	4
BRK	58	0	0
TAP	58	192	2
TAP	58	192	7
TAP	58	288	6
TAP	58	312	3
TAP	58	336	4
TAP	58	360	3
STR	59	0	5
SCR	59	0	5	96	672	2
HLD	61	0	3	672
TAP	62	288	4
TAP	63	0	2
TAP	63	48	2
TAP	63	96	3
TAP	63	144	3
TAP	63	192	4
TAP	63	240	4
TAP	63	288	5
HLD	63	336	5	96
TAP	64	48	2
TAP	64	96	2
TAP	64	144	3
TAP	64	192	3
TAP	64	240	4
TAP	64	288	3
TAP	64	288	4
TAP	65	0	3
TAP	65	0	4
TAP	65	48	2
TAP	65	72	3
TAP	65	96	1
TAP	65	144	0
TAP	65	144	4
TAP	65	192	1
TAP	65	192	3
TAP	65	240	4
TAP	65	256	3
TAP	65	272	5
TAP	65	288	4
TAP	65	336	2
TAP	65	336	6
STR	66	0	7
SCR	66	0	7	96	144	5
TAP	66	48	1
TAP	66	96	2
TAP	66	144	3
XTP	66	288	2
XTP	66	288	6
TAP	67	0	3
TAP	67	32	3
TAP	67	64	7
TAP	67	96	4
TAP	67	128	4
TAP	67	160	0
TAP	67	192	2
TAP	67	224	2
TAP	67	256	6
TAP	67	288	0
TAP	67	320	0
TAP	67	352	4
TAP	68	0	1
TAP	68	32	7
TAP	68	64	3
TAP	68	96	5
TAP	68	128	7
TAP	68	160	3
TAP	68	192	0
TAP	68	224	6
TAP	68	256	2
STR	68	288	0
SI_	68	288	0	96	48	4
TAP	68	320	4
TAP	68	352	6
XTP	69	0	0
TAP	69	96	5
TAP	69	144	5
TAP	69	192	2
TAP	69	192	4
TAP	69	240	1
TAP	69	288	2
TAP	69	288	4
TAP	69	336	3
STR	70	0	5
SCR	70	0	5	96	192	3
TAP	70	72	4
HLD	70	96	4	192
HLD	71	0	2	96
XTP	71	0	5
TAP	71	96	3
TAP	71	120	3
HLD	71	144	1	96
TAP	71	240	3
TAP	71	264	3
HLD	71	288	0	96
TAP	72	0	3
TAP	72	24	3
HLD	72	48	7	96
TAP	72	144	3
TAP	72	168	3
TAP	72	192	0
TAP	72	240	1
TAP	72	288	2
TAP	72	336	3
HLD	73	0	4	96
TAP	73	96	5
TAP	73	144	4
TAP	73	192	3
TAP	73	192	5
TAP	73	288	2
HLD	73	288	6	96
TAP	74	0	0
TAP	74	64	7
TAP	74	96	0
TAP	74	128	6
TAP	74	192	1
TAP	74	192	5
TAP	74	256	2
STR	74	288	4
SCR	74	288	4	96	288	2
TAP	74	320	3
XTP	75	0	4
TAP	75	0	6
TAP	76	0	3
TAP	76	0	4
TAP	76	48	2
TAP	76	48	5
TAP	76	96	1
TAP	76	120	3
TAP	76	168	6
TAP	76	192	4
TAP	76	240	0
TAP	76	264	7
BRK	76	288	1
BRK	76	288	6
TTP	77	0	6	E	0	M1
TTP	77	24	5	B	0	M1
TTP	77	48	3	B	0	M1
TTP	77	72	3	E	0	M1
TTP	77	96	5	E	0	M1
TTP	77	120	4	B	0	M1
TTP	77	144	2	B	0	M1
TTP	77	168	2	E	0	M1
TTP	77	192	7	E	0	M1
TTP	77	216	7	B	0	M1
TTP	77	240	0	B	0	M1
TTP	77	264	1	E	0	M1
TTP	77	288	5	E	0	M1
TTP	77	312	4	B	0	M1
TTP	77	336	3	B	0	M1
TTP	77	360	3	E	0	M1
TTP	78	0	6	E	0	M1
TTP	78	24	6	B	0	M1
TTP	78	48	0	B	0	M1
TTP	78	72	1	E	0	M1
TTP	78	96	7	E	0	M1
TTP	78	120	7	B	0	M1
TTP	78	144	1	B	0	M1
TTP	78	168	2	E	0	M1
THO	78	192	0	96	C	0	M1
TTP	78	288	2	B	0	M1
TTP	78	288	6	B	0	M1
STR	79	0	0
SI_	79	0	0	96	48	4
TAP	79	96	0
STR	79	144	7
SCL	79	144	7	96	48	4
TAP	79	240	4
STR	79	240	7
SI_	79	240	7	96	48	3
TAP	79	336	0
TAP	79	336	7
TAP	80	48	1
TAP	80	72	2
TAP	80	96	3
TAP	80	120	5
TAP	80	144	6
TAP	80	168	7
TAP	80	192	2
TAP	80	216	3
TAP	80	240	5
TAP	80	264	6
TAP	80	288	1
TAP	80	312	2
TAP	80	336	4
TAP	80	360	5
TAP	81	0	0
STR	81	0	6
SI_	81	0	6	96	48	2
TAP	81	96	6
STR	81	144	1
SCR	81	144	1	96	48	4
STR	81	240	1
SI_	81	240	1	96	48	5
TAP	81	240	3
TAP	81	336	1
TAP	81	336	7
TAP	82	48	6
TAP	82	72	7
TAP	82	96	6
HLD	82	144	0	96
TAP	82	144	5
TAP	82	240	7
TAP	82	288	1
TAP	82	288	6
TAP	82	336	2
HLD	82	336	5	144
XTP	83	0	3
TAP	83	48	4
TAP	83	96	4
TAP	83	144	4
TAP	83	168	5
HLD	83	192	3	48
XTP	83	240	4
TAP	83	264	3
TAP	83	288	4
XTP	83	336	6
TAP	83	360	7
XTP	84	24	1
TAP	84	48	0
TAP	84	72	2
XTP	84	96	5
TAP	84	120	4
XTP	84	168	2
TAP	84	192	3
XTP	84	240	0
TAP	84	264	6
XTP	84	288	0
TAP	84	312	6
XTP	84	336	0
XTP	84	360	6
BRK	85	0	0
TAP	85	24	1
TAP	85	48	2
TAP	85	72	3
TAP	85	96	1
TAP	85	120	2
TAP	85	144	3
TAP	85	168	4
TAP	85	192	2
TAP	85	216	3
TAP	85	240	4
TAP	85	264	5
TAP	85	288	1
TAP	85	312	2
TAP	85	336	3
TAP	85	360	4
TAP	86	0	7
TAP	86	24	6
TAP	86	48	5
TAP	86	72	4
TAP	86	96	6
TAP	86	120	5
TAP	86	144	4
TAP	86	168	3
TAP	86	192	5
TAP	86	216	4
TAP	86	240	3
TAP	86	264	2
TAP	86	288	6
TAP	86	312	5
TAP	86	336	4
TAP	86	360	3
STR	87	0	0
SI_	87	0	0	96	48	4
TAP	87	96	0
STR	87	144	5
SI_	87	144	5	96	48	7
STR	87	240	4
SI_	87	240	4	96	48	0
TAP	87	240	5
TAP	87	336	4
XTP	87	336	7
TAP	88	48	6
TAP	88	72	5
TAP	88	96	4
TAP	88	120	2
TAP	88	144	1
TAP	88	168	0
TAP	88	192	5
TAP	88	216	4
TAP	88	240	2
TAP	88	264	1
TAP	88	288	6
TAP	88	312	5
TAP	88	336	3
TAP	88	360	2
STR	89	0	1
SI_	89	0	1	96	48	4
TAP	89	0	7
TAP	89	96	1
STR	89	144	7
SI_	89	144	7	96	48	2
STR	89	240	3
SI_	89	240	3	96	48	0
TAP	89	240	7
XTP	89	336	3
TAP	89	336	4
TAP	90	48	7
TAP	90	72	1
TAP	90	96	7
TAP	90	144	2
HLD	90	144	6	96
TAP	90	240	4
TAP	90	288	3
TAP	90	288	5
TAP	90	336	2
XTP	91	0	1
XTP	91	0	4
TAP	91	48	2
TAP	91	72	3
TAP	91	120	6
TAP	91	144	7
TAP	91	168	5
TAP	91	192	1
TAP	91	216	0
TAP	91	264	6
TAP	91	288	4
TAP	91	336	2
TAP	91	336	3
TAP	92	0	2
TAP	92	0	3
TAP	92	48	0
TAP	92	48	7
TAP	92	96	2
TAP	92	96	4
TAP	92	144	3
TAP	92	144	6
TAP	92	192	5
TAP	92	192	7
TAP	92	240	1
TAP	92	240	4
TAP	92	288	0
TAP	92	288	3
TAP	92	336	0
TAP	92	336	3
TAP	93	0	0
TAP	93	0	3
TAP	93	12	1
TAP	93	12	4
TAP	93	24	2
TAP	93	24	5
TAP	93	36	3
TAP	93	36	6
TAP	93	48	4
HLD	93	48	7	48
TAP	93	96	4
TTP	93	174	5	E	0	M1
TTP	93	180	4	B	0	M1
TTP	93	186	3	B	0	M1
TTP	93	192	3	E	0	M1
TTP	94	0	3	E	0	M1
TTP	94	72	3	B	0	M1
TTP	94	120	4	B	0	M1
STR	94	192	5
SI_	94	192	5	96	192	2

T_REC_TAP	512
T_REC_BRK	10
T_REC_XTP	53
T_REC_HLD	57
T_REC_XHO	11
T_REC_STR	53
T_REC_BST	3
T_REC_XST	2
T_REC_TTP	69
T_REC_THO	2
T_REC_SLD	60
T_REC_ALL	832
T_NUM_TAP	689
T_NUM_BRK	13
T_NUM_HLD	70
T_NUM_SLD	60
T_NUM_ALL	832
T_JUDGE_TAP	702
T_JUDGE_HLD	150
T_JUDGE_SLD	60
T_JUDGE_ALL	912
TTM_EACHPAIRS	103
TTM_SCR_TAP	344500
TTM_SCR_BRK	33800
TTM_SCR_HLD	70000
TTM_SCR_SLD	90000
TTM_SCR_ALL	538300
TTM_SCR_S	520900
TTM_SCR_SS	537000
TTM_RAT_ACV	10024

