VERSION	0.00.00	1.03.00
FES_MODE	0
BPM_DEF	182.000	182.000	182.000	 84.000
MET_DEF	4	4
RESOLUTION	384
CLK_DEF	384
COMPATIBLE_CODE	MA2

BPM	0	0	182.000
BPM	92	0	172.000
BPM	92	288	182.000
BPM	93	0	126.000
BPM	93	96	 92.000
BPM	94	0	 84.000
MET	0	0	4	4

TTP	1	0	6	E	0	M1
TTP	1	96	5	E	0	M1
TTP	1	192	4	E	0	M1
TTP	1	288	3	E	0	M1
TTP	2	0	2	E	0	M1
TTP	2	96	1	E	0	M1
TTP	2	192	0	E	0	M1
TTP	2	288	7	E	0	M1
STR	3	0	5
SCL	3	0	5	96	144	2
TAP	4	48	2
HLD	4	96	2	96
TAP	4	192	4
TAP	4	288	5
STR	5	0	2
SCR	5	0	2	96	144	5
TAP	6	48	5
TAP	6	96	4
TAP	6	144	3
TAP	6	240	3
TAP	6	288	4
HLD	6	336	5	144
HLD	7	96	7	144
HLD	7	240	0	144
HLD	8	0	2	144
TAP	8	144	5
STR	8	288	3
SXL	8	288	3	96	576	7
STR	8	288	4
SXR	8	288	4	96	576	0
TAP	11	0	3
TAP	11	0	4
TAP	11	96	5
TAP	11	144	4
TAP	11	192	3
HLD	11	240	2	96
TAP	11	336	3
HLD	12	48	1	96
TAP	12	144	0
HLD	12	240	6	96
TAP	12	336	7
TAP	13	48	0
STR	13	96	0
SCR	13	96	0	96	96	3
TAP	13	288	6
STR	14	0	7
SCL	14	0	7	96	96	4
TAP	14	192	2
TAP	14	288	2
TAP	15	0	3
TAP	15	0	4
TAP	15	96	2
TAP	15	144	3
TAP	15	192	4
HLD	15	240	5	96
TAP	15	336	4
HLD	16	48	6	96
TAP	16	144	7
TAP	16	240	1
TAP	16	288	1
TAP	16	336	0
TAP	17	48	2
TAP	17	96	2
TAP	17	144	3
TAP	17	240	5
TAP	17	288	4
TAP	17	336	3
HLD	18	0	2	96
TAP	18	96	4
TAP	18	144	2
TAP	18	144	4
TAP	18	240	3
TAP	18	240	5
TAP	18	288	3
STR	18	288	5
SCL	18	288	5	96	384	6
TTP	19	0	0	C	1	M1
TAP	20	240	3
TAP	20	264	4
TAP	20	288	3
XTP	21	0	2
XHO	21	0	5	96
TAP	21	96	3
HLD	21	144	2	96
TAP	21	240	7
TAP	21	288	7
HLD	21	336	6	96
TAP	22	48	0
TAP	22	96	0
HLD	22	144	1	96
TAP	22	240	4
TAP	22	336	2
TAP	22	336	5
TAP	23	0	2
TAP	23	0	5
TTP	23	96	4	E	0	M1
TTP	23	144	3	E	0	M1
TTP	23	144	5	E	0	M1
TTP	23	192	2	E	0	M1
TTP	23	192	6	E	0	M1
TTP	23	240	1	E	0	M1
TTP	23	240	7	E	0	M1
TAP	23	336	0
STR	23	336	7
SCL	23	336	7	96	96	4
STR	24	144	3
SCL	24	144	3	96	96	0
HLD	24	336	7	288
TAP	25	240	0
STR	25	288	0
SI_	25	288	0	96	96	4
XTP	26	0	5
TAP	26	96	6
TAP	26	144	6
TAP	26	192	4
TAP	26	240	4
TAP	26	288	3
TAP	26	336	3
STR	27	0	1
SI_	27	0	1	96	96	4
SCL	27	0	1	96	96	6
TAP	27	288	5
STR	28	0	5
SI_	28	0	5	96	96	0
SCL	28	0	5	96	96	2
TAP	28	288	1
HLD	29	0	0	192
TAP	29	96	2
HLD	29	192	7	192
TAP	29	288	5
HLD	30	0	0	192
TAP	30	96	2
TAP	30	192	7
TAP	30	264	1
TAP	30	264	6
TAP	30	336	2
TAP	30	336	5
TAP	31	0	2
HLD	31	0	5	144
HLD	31	144	2	144
HLD	31	288	7	144
HLD	32	48	5	912
TAP	32	192	2
HLD	32	288	2	672
TAP	34	288	3
TAP	34	288	4
TAP	35	0	2
HLD	35	0	4	144
TAP	35	96	3
HLD	35	144	2	144
TAP	35	240	3
HLD	35	288	4	96
TAP	36	0	3
TAP	36	48	2
TAP	36	48	5
TAP	36	96	2
TAP	36	96	5
TAP	36	192	7
TAP	36	240	0
TAP	36	288	1
TAP	36	288	5
TAP	37	0	0
HLD	37	0	6	144
TAP	37	96	7
HLD	37	144	0	144
TAP	37	240	7
HLD	37	288	6	96
TAP	38	0	7
TAP	38	48	0
TAP	38	96	0
TAP	38	96	7
BRK	38	144	0
BRK	38	144	7
BRK	38	216	1
BRK	38	216	6
BRK	38	288	1
BRK	38	288	6
HLD	39	0	3	144
TAP	39	0	5
TAP	39	96	4
HLD	39	144	5	144
TAP	39	240	4
HLD	39	288	3	96
TAP	40	0	4
TAP	40	48	2
TAP	40	48	5
TAP	40	96	2
TAP	40	96	5
TAP	40	192	0
TAP	40	240	7
TAP	40	288	2
TAP	40	288	6
HLD	41	0	1	144
TAP	41	96	0
HLD	41	144	7	144
TAP	41	240	0
HLD	41	288	1	96
STR	42	0	6
SLL	42	0	6	96	144	7
TAP	43	0	0
TAP	43	48	1
TAP	43	96	2
TAP	43	144	3
TAP	43	192	0
TAP	43	240	1
TAP	43	288	2
TAP	43	336	3
HLD	44	0	4	72
HLD	44	72	3	72
HLD	44	144	2	72
HLD	44	216	1	72
TAP	44	288	0
TAP	45	0	7
TAP	45	48	6
TAP	45	96	5
TAP	45	144	4
TAP	45	192	7
TAP	45	240	6
TAP	45	288	5
TAP	45	336	4
STR	46	0	3
SCL	46	0	3	96	96	0
STR	46	192	7
SI_	46	192	7	96	96	4
TAP	47	0	3
TAP	47	48	2
TAP	47	96	1
TAP	47	144	0
TAP	47	192	3
TAP	47	240	2
TAP	47	288	1
TAP	47	336	0
TAP	48	0	7
TAP	48	48	6
TAP	48	96	5
TAP	48	144	3
TAP	48	144	4
TAP	48	240	3
TAP	48	240	4
TAP	48	288	2
TAP	48	288	5
TAP	49	0	4
TAP	49	48	5
TAP	49	96	6
TAP	49	144	7
TAP	49	192	4
TAP	49	240	5
TAP	49	288	6
TAP	49	336	7
HLD	50	0	0	192
BRK	50	192	7
TAP	51	0	3
HLD	51	0	5	240
TAP	51	96	4
TAP	51	144	4
TAP	51	240	3
HLD	51	288	3	96
TAP	52	0	4
TAP	52	48	4
TAP	52	96	2
TAP	52	144	2
TAP	52	192	3
TAP	52	192	5
TAP	52	288	2
TAP	52	288	6
TAP	53	0	3
TAP	53	0	5
TAP	53	96	2
TAP	53	96	4
XTP	53	192	6
TAP	53	288	3
TAP	53	288	5
XTP	54	0	1
TAP	54	96	3
TAP	54	96	4
XTP	54	192	0
XTP	54	192	7
HLD	55	0	3	96
HLD	55	0	5	96
HLD	55	144	2	96
HLD	55	144	4	96
HLD	55	288	3	96
HLD	55	288	6	96
HLD	56	48	1	96
HLD	56	48	4	96
TAP	56	192	3
TAP	56	192	6
TAP	56	288	7
TAP	56	348	7
TAP	57	60	0
TAP	57	60	6
TAP	57	132	0
TAP	57	132	6
TAP	57	240	1
TAP	57	240	7
TAP	57	312	1
TAP	57	312	7
STR	58	0	1
SXL	58	0	1	96	288	7
TAP	58	0	7
BST	59	0	6
SCL	59	0	6	96	288	1
TAP	60	192	0
STR	61	0	0
SCR	61	0	0	96	288	5
TTP	62	0	7	B	0	M1
TTP	62	0	7	E	0	M1
TTP	62	192	1	B	0	M1
TTP	62	192	1	E	0	M1
STR	63	0	0
SCR	63	0	0	96	96	3
TAP	63	288	7
STR	64	0	7
SCL	64	0	7	96	96	4
HLD	64	288	2	96
TAP	65	0	3
TAP	65	96	1
TAP	65	96	4
TAP	65	144	1
TAP	65	144	4
TAP	65	240	3
TAP	65	240	6
TAP	65	288	3
HLD	65	288	6	96
HLD	66	0	4	96
HLD	66	96	2	96
HLD	66	192	0	96
HLD	66	288	6	96
HLD	67	0	4	96
HLD	67	96	3	96
HLD	67	192	2	96
HLD	67	288	1	96
HLD	68	0	0	96
HLD	68	96	7	96
HLD	68	192	6	96
HLD	68	288	5	96
STR	69	0	4
SI_	69	0	4	96	96	0
TAP	69	288	1
TAP	69	288	7
TAP	70	0	1
TAP	70	0	7
TAP	70	96	2
TAP	70	96	6
TAP	70	192	2
TAP	70	192	6
STR	70	288	3
SCL	70	288	3	96	96	0
TAP	70	288	5
TTP	71	0	0	C	1	M1
TAP	71	288	2
STR	71	288	4
SCR	71	288	4	96	96	7
TTP	72	0	0	C	1	M1
TAP	72	288	3
TAP	72	288	5
TAP	73	0	3
TAP	73	0	5
TAP	73	96	2
TAP	73	96	6
TAP	73	192	1
TAP	73	192	7
HLD	73	288	0	192
TAP	74	0	4
TAP	74	96	4
TAP	74	192	0
TAP	74	192	4
TAP	74	256	1
TAP	74	256	5
TAP	74	320	2
TAP	74	320	6
TAP	75	0	3
STR	75	0	7
SCL	75	0	7	96	384	0
XTP	77	0	0
XTP	77	0	7
TAP	77	48	1
TAP	77	96	2
TAP	77	96	3
TAP	77	144	4
TAP	77	192	3
TAP	77	192	5
TAP	77	240	6
STR	77	288	0
SI_	77	288	0	96	48	4
STR	77	288	7
SI_	77	288	7	96	48	3
STR	78	96	1
SI_	78	96	1	96	48	4
STR	78	96	6
SI_	78	96	6	96	48	3
TAP	78	288	2
TAP	78	288	5
HLD	79	0	6	96
TAP	79	96	4
TAP	79	144	4
TAP	79	240	3
TAP	79	240	5
TAP	79	336	2
TAP	79	336	4
TAP	80	48	1
TAP	80	96	1
TAP	80	144	5
TAP	80	192	5
TAP	80	240	3
TAP	80	288	2
TAP	80	288	4
HLD	81	0	1	96
TAP	81	96	3
TAP	81	144	3
TAP	81	240	2
TAP	81	240	4
TAP	81	336	3
TAP	81	336	5
TAP	82	48	2
TAP	82	48	6
TAP	82	96	2
TAP	82	96	6
XHO	82	144	7	96
TAP	82	240	3
TAP	82	288	2
STR	82	336	1
SCR	82	336	1	96	48	4
TAP	83	48	6
STR	83	144	7
SCL	83	144	7	96	48	4
TAP	83	240	0
TAP	83	336	0
TAP	84	24	1
TAP	84	24	7
TAP	84	96	2
TAP	84	96	6
TAP	84	168	7
TAP	84	240	0
TAP	84	240	6
TAP	84	288	0
TAP	84	288	6
XTP	85	0	1
XTP	85	0	7
TAP	85	48	6
TAP	85	96	4
TAP	85	96	5
TAP	85	144	3
TAP	85	192	2
TAP	85	192	4
TAP	85	240	1
STR	85	288	0
SI_	85	288	0	96	48	4
STR	85	288	7
SI_	85	288	7	96	48	3
STR	86	96	1
SI_	86	96	1	96	48	4
STR	86	96	6
SI_	86	96	6	96	48	3
TAP	86	288	1
TAP	86	288	6
HLD	87	0	2	96
TAP	87	0	5
TAP	87	96	0
TAP	87	144	0
TAP	87	240	1
TAP	87	240	7
TAP	87	336	0
TAP	87	336	6
TAP	88	48	5
TAP	88	96	5
TAP	88	144	1
TAP	88	192	1
TAP	88	240	7
TAP	88	288	0
TAP	88	288	6
HLD	89	0	5	96
TAP	89	96	7
TAP	89	144	7
TAP	89	240	0
TAP	89	240	6
TAP	89	336	1
TAP	89	336	7
TAP	90	48	2
TAP	90	48	6
TAP	90	96	2
TAP	90	96	6
XHO	90	144	3	96
TAP	90	240	7
TAP	90	288	6
TAP	90	336	5
TAP	91	0	4
TAP	91	72	4
TAP	91	144	3
TAP	91	144	5
TAP	91	216	2
TAP	91	216	6
TAP	91	288	1
TAP	91	288	7
TAP	92	0	2
TAP	92	48	2
TAP	92	96	4
TAP	92	144	4
TAP	92	192	3
TAP	92	240	3
TAP	92	288	5
TAP	92	336	5
STR	93	0	2
SI_	93	0	2	96	48	5
STR	93	96	7
SCL	93	96	7	96	480	0

T_REC_TAP	321
T_REC_BRK	7
T_REC_XTP	10
T_REC_HLD	69
T_REC_XHO	3
T_REC_STR	35
T_REC_BST	1
T_REC_XST	0
T_REC_TTP	22
T_REC_THO	0
T_REC_SLD	38
T_REC_ALL	506
T_NUM_TAP	388
T_NUM_BRK	8
T_NUM_HLD	72
T_NUM_SLD	38
T_NUM_ALL	506
T_JUDGE_TAP	396
T_JUDGE_HLD	205
T_JUDGE_SLD	38
T_JUDGE_ALL	639
TTM_EACHPAIRS	100
TTM_SCR_TAP	194000
TTM_SCR_BRK	20800
TTM_SCR_HLD	72000
TTM_SCR_SLD	57000
TTM_SCR_ALL	343800
TTM_SCR_S	332750
TTM_SCR_SS	343000
TTM_RAT_ACV	10023

