VERSION	0.00.00	1.03.00
FES_MODE	0
BPM_DEF	182.000	182.000	182.000	 84.000
MET_DEF	4	4
RESOLUTION	384
CLK_DEF	384
COMPATIBLE_CODE	MA2

BPM	0	0	182.000
BPM	92	0	172.000
BPM	92	288	182.000
BPM	93	0	126.000
BPM	93	96	 92.000
BPM	94	0	 84.000
MET	0	0	4	4

THO	1	0	0	384	C	0	L1
XST	3	0	7
SCL	3	0	7	96	192	4
STR	4	0	3
SCL	4	0	3	96	192	0
STR	5	0	6
SCL	5	0	6	96	192	3
STR	6	0	2
SCL	6	0	2	96	192	7
XST	7	0	6
SXR	7	0	6	96	480	3
XST	8	288	2
SCL	8	288	2	96	576	3
XTP	11	0	3
XTP	11	0	4
TAP	11	96	5
TAP	11	192	5
TAP	11	288	4
TAP	11	288	5
TAP	12	96	2
TAP	12	192	2
TAP	12	288	2
TAP	12	288	3
TAP	13	96	5
TAP	13	192	5
TAP	13	288	4
TAP	14	0	4
TAP	14	96	3
TAP	14	192	3
TAP	14	288	2
TAP	14	288	4
TAP	15	96	1
TAP	15	192	1
TAP	15	288	0
TAP	15	288	1
TAP	16	96	6
TAP	16	192	6
STR	16	288	6
SCL	16	288	6	96	192	3
TAP	16	288	7
TAP	17	288	2
STR	18	0	2
SCL	18	0	2	96	192	7
BST	19	0	6
SXL	19	0	6	96	480	3
STR	21	0	2
SCR	21	0	2	96	192	5
STR	22	0	6
SUL	22	0	6	96	192	2
STR	23	0	1
SUR	23	0	1	96	192	5
HLD	24	0	6	192
TAP	24	192	7
TAP	24	288	7
STR	25	0	0
SCR	25	0	0	96	192	3
STR	26	0	4
SCR	26	0	4	96	192	7
HLD	27	0	1	192
TAP	27	192	0
HLD	28	0	6	192
TAP	28	192	7
HLD	29	0	5	192
HLD	29	192	4	192
HLD	30	0	3	192
TAP	30	192	2
TAP	31	0	1
TAP	31	96	1
TAP	31	192	0
TAP	31	288	0
TAP	32	0	7
TAP	32	96	6
TAP	32	192	5
BST	32	288	3
SXR	32	288	3	96	480	0
BST	32	288	4
SXL	32	288	4	96	480	7
TAP	35	0	6
TAP	35	96	6
TAP	35	192	6
TAP	35	192	7
TAP	36	0	1
TAP	36	96	1
TAP	36	192	0
TAP	36	192	1
TAP	37	0	6
TAP	37	96	6
TAP	37	192	7
TAP	37	288	7
TAP	38	0	0
TAP	38	96	0
TAP	38	192	1
TAP	38	192	7
TAP	39	0	2
TAP	39	96	2
TAP	39	192	2
TAP	39	192	3
TAP	40	0	5
TAP	40	96	5
TAP	40	192	4
TAP	40	192	5
TAP	41	0	2
TAP	41	96	2
TAP	41	192	3
TAP	41	288	3
TAP	42	0	3
TAP	42	0	4
TAP	42	96	3
TAP	42	96	4
TAP	42	192	2
TAP	42	192	5
STR	43	0	6
SCL	43	0	6	96	192	3
STR	44	0	2
SCL	44	0	2	96	192	7
STR	45	0	6
SXL	45	0	6	96	480	4
STR	47	0	3
SCL	47	0	3	96	192	0
STR	48	0	7
SCL	48	0	7	96	192	4
TAP	49	0	2
TAP	49	96	2
TAP	49	192	3
TAP	49	288	3
TAP	50	0	4
TAP	50	96	4
TAP	50	192	3
TAP	50	192	5
THO	51	0	0	1152	C	0	L1
HLD	55	0	6	192
TAP	55	192	7
TAP	55	288	7
TAP	56	0	0
TAP	56	96	0
TAP	56	192	1
TAP	56	192	7
XHO	57	0	2	192
TAP	57	192	3
STR	57	288	3
SCL	57	288	3	96	192	0
STR	57	288	4
SCR	57	288	4	96	192	7
TTP	59	0	0	C	0	L1
TTP	60	0	1	B	0	L1
XST	61	0	0
SUR	61	0	0	96	480	3
TTP	63	0	5	E	0	L1
TTP	64	0	3	E	0	L1
TTP	65	0	2	E	0	L1
TTP	65	96	2	B	0	L1
TTP	65	192	3	B	0	L1
TTP	66	0	6	E	0	L1
TTP	66	96	5	B	0	L1
TTP	66	192	4	B	0	L1
TTP	67	0	1	B	0	L1
TTP	67	96	2	B	0	L1
TTP	67	192	3	B	0	L1
TTP	67	288	4	B	0	L1
TTP	68	0	5	B	0	L1
TTP	68	96	6	B	0	L1
TTP	68	192	7	E	0	L1
XST	69	0	0
SCR	69	0	0	96	192	3
TAP	70	0	4
TAP	70	96	4
TAP	70	192	3
TAP	70	192	4
HLD	71	0	5	192
HLD	71	192	4	192
HLD	72	0	3	192
TAP	72	192	2
HLD	73	0	1	192
HLD	73	192	0	192
HLD	74	0	7	192
TAP	74	192	6
BST	75	0	0
SXL	75	0	0	96	480	3
BST	75	0	7
SXR	75	0	7	96	480	4
TAP	77	0	5
TAP	77	96	5
TAP	77	192	4
TAP	77	192	5
TAP	77	288	4
TAP	77	288	5
TAP	78	0	2
TAP	78	96	2
TAP	78	192	2
TAP	78	192	3
TAP	78	288	2
TAP	78	288	3
TAP	79	0	1
TAP	79	96	0
TAP	79	192	7
TAP	79	288	6
STR	80	0	5
SCR	80	0	5	96	192	0
TAP	81	0	1
TAP	81	96	0
TAP	81	192	7
TAP	81	288	6
STR	82	0	5
SCR	82	0	5	96	192	0
TAP	83	0	1
TAP	83	96	1
TAP	83	192	2
TAP	83	288	2
TAP	84	0	3
TAP	84	0	4
TAP	84	96	3
TAP	84	96	4
TAP	84	192	2
TAP	84	192	5
TAP	85	0	6
TAP	85	96	6
TAP	85	192	6
TAP	85	192	7
TAP	85	288	6
TAP	85	288	7
TAP	86	0	1
TAP	86	96	1
TAP	86	192	0
TAP	86	192	1
TAP	86	288	0
TAP	86	288	1
TAP	87	0	2
TAP	87	96	3
TAP	87	192	4
TAP	87	288	5
STR	88	0	6
SCL	88	0	6	96	192	3
TAP	89	0	2
TAP	89	96	3
TAP	89	192	4
TAP	89	288	5
STR	90	0	6
SCL	90	0	6	96	192	3
TAP	91	0	2
TAP	91	96	2
TAP	91	192	1
TAP	91	288	1
XTP	92	0	0
XTP	92	0	7
XTP	92	96	1
XTP	92	96	6
XTP	92	192	2
XTP	92	192	5
XTP	92	288	3
XTP	92	288	4
XTP	93	0	2
XTP	93	0	5
XST	93	192	2
SCL	93	192	2	96	288	5

T_REC_TAP	145
T_REC_BRK	0
T_REC_XTP	12
T_REC_HLD	13
T_REC_XHO	1
T_REC_STR	21
T_REC_BST	5
T_REC_XST	6
T_REC_TTP	17
T_REC_THO	2
T_REC_SLD	32
T_REC_ALL	254
T_NUM_TAP	201
T_NUM_BRK	5
T_NUM_HLD	16
T_NUM_SLD	32
T_NUM_ALL	254
T_JUDGE_TAP	206
T_JUDGE_HLD	88
T_JUDGE_SLD	32
T_JUDGE_ALL	326
TTM_EACHPAIRS	36
TTM_SCR_TAP	100500
TTM_SCR_BRK	13000
TTM_SCR_HLD	16000
TTM_SCR_SLD	48000
TTM_SCR_ALL	177500
TTM_SCR_S	171700
TTM_SCR_SS	177000
TTM_RAT_ACV	10028

