VERSION	0.00.00	1.03.00
FES_MODE	0
BPM_DEF	182.000	182.000	182.000	 84.000
MET_DEF	4	4
RESOLUTION	384
CLK_DEF	384
COMPATIBLE_CODE	MA2

BPM	0	0	182.000
BPM	92	0	172.000
BPM	92	288	182.000
BPM	93	0	126.000
BPM	93	96	 92.000
BPM	94	0	 84.000
MET	0	0	4	4

HLD	3	0	0	336
HLD	5	0	7	336
XHO	6	336	0	720
XHO	6	336	7	720
TAP	11	96	0
TAP	11	192	0
TAP	12	96	1
TAP	12	192	1
TAP	13	96	2
TAP	13	192	2
TAP	14	96	3
TAP	14	96	4
TAP	14	192	3
TAP	14	192	4
TAP	15	96	4
TAP	15	192	4
TAP	16	96	5
TAP	16	192	5
TAP	17	96	6
TAP	17	192	6
TAP	18	96	0
TAP	18	96	7
XTP	18	192	0
XTP	18	192	7
XST	19	0	7
SI_	19	0	7	96	288	4
STR	21	0	0
SI_	21	0	0	96	288	3
TAP	23	0	7
TAP	23	192	7
TAP	24	0	6
TAP	24	0	7
TAP	25	0	5
TAP	25	192	5
TAP	26	0	4
TAP	26	0	5
TAP	27	0	3
TAP	27	192	3
TAP	28	0	2
TAP	28	0	3
TAP	29	0	1
TAP	29	192	1
TAP	30	0	0
TAP	30	0	1
TAP	31	0	0
TAP	31	192	0
TAP	32	0	7
STR	32	192	0
SI_	32	192	0	96	288	3
STR	32	192	7
SI_	32	192	7	96	288	4
TAP	35	0	3
TAP	35	96	3
TAP	35	192	3
TAP	36	0	2
TAP	36	96	2
TAP	36	192	2
TAP	37	0	1
TAP	37	96	1
TAP	37	192	1
TAP	38	0	0
TAP	38	96	0
TAP	38	192	0
TAP	38	192	7
TAP	39	0	7
TAP	39	96	7
TAP	39	192	7
TAP	40	0	6
TAP	40	96	6
TAP	40	192	6
TAP	41	0	5
TAP	41	96	5
TAP	41	192	5
XTP	42	0	3
XTP	42	0	4
TTP	43	0	4	B	0	L1
TTP	44	0	5	B	0	L1
TTP	45	0	6	B	0	L1
TTP	46	0	7	B	0	L1
TTP	47	0	0	B	0	L1
TTP	48	0	1	B	0	L1
TTP	49	0	2	B	0	L1
TTP	50	0	0	C	0	L1
TAP	51	0	7
TAP	51	192	7
TAP	52	0	6
TAP	52	192	6
HLD	53	0	4	384
HLD	53	0	5	384
TAP	55	0	3
TAP	55	192	3
TAP	56	0	2
TAP	56	192	2
HLD	57	0	0	384
HLD	57	0	1	384
STR	59	0	7
SI_	59	0	7	96	288	3
STR	61	0	0
SI_	61	0	0	96	288	4
TAP	63	0	7
XTP	64	0	0
XTP	64	0	7
TAP	65	0	0
TAP	65	96	0
TAP	65	192	0
TAP	66	0	1
TAP	66	192	0
TAP	66	192	1
TAP	67	0	2
TAP	67	96	2
TAP	67	192	2
TAP	68	0	3
TAP	68	192	3
TAP	68	192	4
TAP	69	0	5
TAP	69	96	5
TAP	69	192	5
XTP	70	0	6
XTP	70	0	7
TTP	71	0	6	B	0	L1
TTP	71	0	7	B	0	L1
TTP	72	0	4	B	0	L1
TTP	72	0	5	B	0	L1
TTP	73	0	2	B	0	L1
TTP	73	0	3	B	0	L1
TTP	74	0	0	B	0	L1
TTP	74	0	1	B	0	L1
TTP	75	0	0	C	1	L1
TAP	77	0	7
TAP	77	96	7
TAP	77	192	7
TAP	78	0	6
TAP	78	96	6
TAP	78	192	6
TAP	79	0	5
TAP	79	96	5
TAP	79	192	4
TAP	79	192	5
TAP	80	0	3
TAP	80	96	3
TAP	80	192	3
TAP	80	192	4
TAP	81	0	2
TAP	81	96	2
TAP	81	192	2
TAP	81	192	3
TAP	82	0	1
TAP	82	96	1
TAP	82	192	1
TAP	83	0	0
TAP	83	96	0
TAP	83	192	0
TAP	84	0	7
TAP	84	96	7
TAP	84	192	0
TAP	84	192	7
BRK	85	0	0
TAP	85	96	0
TAP	85	192	1
TAP	85	288	1
TAP	86	0	2
TAP	86	96	2
TAP	86	192	2
TAP	86	192	3
TAP	87	0	4
TAP	87	96	4
TAP	87	192	5
TAP	87	288	5
TAP	88	0	6
TAP	88	96	6
TAP	88	192	6
TAP	88	192	7
TAP	89	0	0
TAP	89	96	0
TAP	89	192	0
TAP	89	192	7
TAP	90	0	1
TAP	90	96	1
TAP	90	192	0
TAP	90	192	1
TAP	91	0	7
TAP	91	96	7
TAP	91	192	0
TAP	91	288	0
STR	92	0	0
SI_	92	0	0	96	288	3
STR	92	0	7
SI_	92	0	7	96	288	4
THO	93	192	0	384	C	0	L1

T_REC_TAP	138
T_REC_BRK	1
T_REC_XTP	8
T_REC_HLD	6
T_REC_XHO	2
T_REC_STR	7
T_REC_BST	0
T_REC_XST	1
T_REC_TTP	17
T_REC_THO	1
T_REC_SLD	8
T_REC_ALL	189
T_NUM_TAP	171
T_NUM_BRK	1
T_NUM_HLD	9
T_NUM_SLD	8
T_NUM_ALL	189
T_JUDGE_TAP	172
T_JUDGE_HLD	92
T_JUDGE_SLD	8
T_JUDGE_ALL	272
TTM_EACHPAIRS	27
TTM_SCR_TAP	85500
TTM_SCR_BRK	2600
TTM_SCR_HLD	9000
TTM_SCR_SLD	12000
TTM_SCR_ALL	109100
TTM_SCR_S	105750
TTM_SCR_SS	109000
TTM_RAT_ACV	10009

