VERSION	0.00.00	1.03.00
FES_MODE	0
BPM_DEF	201.000	202.000	202.000	105.000
MET_DEF	4	4
RESOLUTION	384
CLK_DEF	384
COMPATIBLE_CODE	MA2

BPM	0	0	201.000
BPM	10	0	199.000
BPM	14	0	201.000
BPM	30	0	198.000
BPM	46	0	200.000
BPM	64	0	202.000
BPM	97	0	196.000
BPM	97	192	190.000
BPM	98	0	198.000
BPM	99	0	196.000
BPM	100	0	194.000
BPM	103	0	192.000
BPM	104	0	189.000
BPM	104	96	187.000
BPM	104	192	183.000
BPM	104	288	177.000
BPM	105	0	171.000
BPM	105	96	168.000
BPM	105	192	151.000
BPM	105	288	131.000
BPM	105	360	105.000
BPM	106	0	132.000
MET	0	0	4	4

HLD	2	0	2	768
TAP	2	0	4
HLD	4	0	5	768
TAP	5	0	4
TAP	5	192	3
STR	6	0	2
SCR	6	0	2	96	1296	1
TAP	7	0	6
TAP	8	0	5
HLD	9	0	4	384
TTP	10	0	0	C	1	M1
TAP	11	0	7
TAP	11	192	6
HLD	12	0	5	384
HLD	13	0	4	192
TAP	13	192	3
TAP	13	216	2
TAP	13	240	1
TAP	13	264	0
TAP	13	288	7
TAP	13	312	6
TAP	13	336	5
TAP	13	360	4
TAP	14	0	1
TAP	14	0	3
TAP	14	48	0
TAP	14	96	6
TAP	14	96	7
TAP	14	144	5
STR	14	192	3
SI_	14	192	3	96	48	7
TAP	14	192	4
TAP	14	240	2
TAP	14	288	1
TAP	14	288	3
TAP	15	0	1
TAP	15	48	2
STR	15	96	4
SI_	15	96	4	96	48	0
TAP	15	144	5
TAP	15	192	4
TAP	15	192	6
TAP	15	240	7
TAP	15	288	1
TAP	15	288	6
TAP	15	336	5
STR	16	0	3
SI_	16	0	3	96	48	7
TAP	16	0	4
TAP	16	48	2
TAP	16	96	1
TAP	16	96	3
TAP	16	192	6
TAP	16	240	5
TAP	16	288	3
TAP	16	336	2
TAP	17	0	1
TAP	17	0	4
TAP	17	48	2
TAP	17	96	3
TAP	17	96	6
TAP	17	144	5
TAP	17	192	1
TAP	17	192	4
TAP	17	240	2
TAP	17	288	3
TAP	17	288	6
TAP	17	336	5
TAP	18	0	1
TAP	18	0	4
TAP	18	48	2
TAP	18	72	2
TAP	18	96	3
TAP	18	144	1
STR	18	192	0
SI_	18	192	0	96	48	4
TAP	18	192	4
TAP	18	240	5
TAP	18	288	0
TAP	18	288	6
TAP	19	0	3
TAP	19	0	5
TAP	19	48	6
TAP	19	96	2
TAP	19	96	4
TAP	19	144	1
TAP	19	192	3
TAP	19	192	6
TAP	19	240	5
TAP	19	264	5
TAP	19	288	4
TAP	19	336	6
TAP	20	0	3
STR	20	0	7
SI_	20	0	7	96	48	3
TAP	20	48	2
TAP	20	96	1
TAP	20	96	7
TAP	20	192	2
TAP	20	192	4
TAP	20	240	1
TAP	20	288	3
TAP	20	288	5
TAP	20	336	6
TAP	21	0	1
TAP	21	0	4
TAP	21	48	2
TAP	21	72	2
TAP	21	96	3
TAP	21	144	1
TAP	21	192	7
TAP	21	216	6
TAP	21	240	5
TAP	21	264	4
TAP	21	288	7
TAP	21	312	0
TAP	21	336	1
TAP	21	360	2
TAP	22	0	3
BST	22	0	6
SI_	22	0	6	96	48	3
STR	22	96	1
SI_	22	96	1	96	48	7
STR	22	192	4
SLR	22	192	4	96	96	2
TAP	22	288	2
STR	22	336	2
SI_	22	336	2	96	48	6
STR	23	48	0
SI_	23	48	0	96	48	2
STR	23	144	5
SXL	23	144	5	96	144	3
TAP	23	240	3
HLD	23	336	1	144
TAP	24	48	2
STR	24	96	3
SXR	24	96	3	96	144	4
TAP	24	144	4
TAP	24	192	5
TAP	24	288	7
STR	24	336	7
SI_	24	336	7	96	48	3
STR	25	48	3
SI_	25	48	3	96	48	7
TAP	25	144	2
TAP	25	240	1
TAP	25	288	1
TAP	25	336	2
TAP	25	336	7
STR	26	0	6
SCL	26	0	6	96	48	3
STR	26	48	3
SI_	26	48	3	96	48	6
STR	26	96	6
SLL	26	96	6	96	96	0
TAP	26	144	1
TAP	26	240	2
TAP	26	288	2
STR	27	0	1
SCR	27	0	1	96	48	4
STR	27	48	4
SI_	27	48	4	96	48	1
STR	27	96	1
SLR	27	96	1	96	96	7
TAP	27	144	6
TAP	27	240	5
TAP	27	288	5
TAP	28	0	0
TAP	28	0	6
TAP	28	48	5
TAP	28	72	4
TAP	28	96	5
TAP	28	144	1
TAP	28	144	7
TAP	28	192	2
TAP	28	216	3
TAP	28	240	2
TAP	28	288	0
TAP	28	288	6
TAP	28	336	5
TAP	28	360	4
TAP	29	0	5
TAP	29	48	1
TAP	29	48	7
TAP	29	96	0
TAP	29	96	6
TAP	29	144	5
TAP	29	144	7
TAP	29	192	4
TAP	29	192	6
TAP	29	240	2
TAP	29	240	3
TAP	29	288	0
TAP	29	288	6
TAP	29	336	3
TAP	29	336	5
BRK	30	0	0
TTP	30	0	0	C	1	M1
TTP	31	0	7	E	0	M1
TTP	31	192	0	E	0	M1
TTP	32	0	1	E	0	M1
STR	33	0	1
SCL	33	0	1	96	1728	6
TTP	34	0	5	B	0	M1
TTP	34	4	5	E	0	M1
TTP	35	0	2	B	0	M1
TTP	35	4	3	E	0	M1
TAP	36	0	5
TAP	36	8	4
TAP	36	16	3
TAP	37	0	2
TAP	37	8	3
HLD	37	16	4	176
TAP	38	0	2
TTP	38	0	5	E	0	M1
TAP	38	48	2
TAP	38	96	2
TTP	38	96	6	E	0	M1
TAP	38	144	2
TAP	38	192	2
TTP	38	192	7	E	0	M1
TAP	38	288	1
TTP	38	288	5	E	0	M1
TAP	38	336	1
TAP	39	0	1
TTP	39	0	6	E	0	M1
TAP	39	48	1
TAP	39	96	1
TTP	39	96	7	E	0	M1
TAP	39	192	0
TTP	39	192	5	E	0	M1
TAP	39	240	0
TAP	39	288	0
TTP	39	288	6	E	0	M1
TTP	40	0	3	E	0	M1
TAP	40	0	5
TAP	40	48	5
TTP	40	96	2	E	0	M1
TAP	40	96	5
TAP	40	144	5
TTP	40	192	1	E	0	M1
TAP	40	192	5
TTP	40	288	3	E	0	M1
TAP	40	288	6
TAP	40	336	6
TTP	41	0	2	E	0	M1
TAP	41	0	6
TAP	41	48	6
TTP	41	96	1	E	0	M1
TAP	41	96	6
TTP	41	192	3	E	0	M1
TAP	41	192	7
TAP	41	240	7
TTP	41	288	2	E	0	M1
TAP	41	288	7
TAP	42	0	3
TTP	42	0	6	E	0	M1
TAP	42	48	3
TAP	42	96	2
TTP	42	96	7	E	0	M1
TAP	42	144	2
TTP	42	192	0	E	0	M1
TAP	42	192	1
TTP	42	288	2	E	0	M1
TAP	42	288	4
TAP	42	336	4
TTP	43	0	1	E	0	M1
TAP	43	0	5
TAP	43	48	5
TTP	43	96	0	E	0	M1
TAP	43	96	6
TAP	43	192	3
TTP	43	192	6	E	0	M1
TAP	43	240	3
TAP	43	288	2
TTP	43	288	7	E	0	M1
TTP	44	0	4	E	0	M1
TAP	44	0	5
TAP	44	48	5
TTP	44	96	3	E	0	M1
TAP	44	96	6
TAP	44	144	6
TTP	44	192	2	E	0	M1
TAP	44	192	7
TAP	44	288	2
TTP	44	288	4	E	0	M1
TAP	44	336	2
TAP	45	0	1
TTP	45	0	5	E	0	M1
TAP	45	48	1
TAP	45	96	0
TTP	45	96	6	E	0	M1
TAP	45	192	5
TAP	45	216	4
TAP	45	240	3
TAP	45	264	2
TAP	45	288	1
TAP	45	312	0
TAP	45	336	7
TAP	45	360	6
XHO	46	0	1	180
XHO	46	0	5	180
BRK	46	192	2
BRK	46	192	6
BRK	46	204	3
BRK	46	204	7
BRK	46	216	0
BRK	46	216	4
TAP	46	288	7
TAP	46	336	7
TAP	47	0	0
TAP	47	0	6
TAP	47	12	5
TAP	47	24	4
TAP	47	36	3
TAP	47	48	0
TAP	47	96	0
TAP	47	144	1
TAP	47	144	7
TAP	47	156	2
TAP	47	168	3
TAP	47	180	4
TAP	47	192	7
TAP	47	240	7
TAP	47	288	0
TAP	47	336	0
TAP	48	0	6
TAP	48	0	7
TAP	48	12	5
TAP	48	24	4
TAP	48	36	3
TAP	48	48	7
TAP	48	96	7
TAP	48	144	0
TAP	48	144	1
TAP	48	156	2
TAP	48	168	3
TAP	48	180	4
TAP	48	192	0
TAP	48	240	0
TAP	48	288	7
TAP	48	336	7
STR	49	0	0
SI_	49	0	0	96	48	2
STR	49	48	7
SI_	49	48	7	96	48	5
TAP	49	96	0
TAP	49	144	7
STR	49	192	0
SI_	49	192	0	96	48	4
STR	49	240	7
SI_	49	240	7	96	48	3
TAP	49	288	0
TAP	49	336	7
BST	50	0	1
SSL	50	0	1	96	96	5
TAP	50	192	7
TAP	50	288	6
TAP	50	336	6
TAP	51	0	0
TAP	51	0	5
TAP	51	12	4
TAP	51	24	3
TAP	51	36	2
TAP	51	48	0
TAP	51	96	0
TAP	51	144	2
TAP	51	144	7
TAP	51	156	3
TAP	51	168	4
TAP	51	180	5
TAP	51	192	7
TAP	51	240	7
STR	51	288	1
SI_	51	288	1	96	48	3
TAP	51	336	0
TAP	52	0	1
STR	52	48	6
SI_	52	48	6	96	48	4
TAP	52	96	7
TAP	52	144	6
STR	52	192	1
SI_	52	192	1	96	48	4
TAP	52	240	0
TAP	52	288	1
STR	52	336	6
SI_	52	336	6	96	48	3
TAP	53	0	7
TAP	53	48	6
TAP	53	96	2
TAP	53	144	2
TAP	53	192	4
TAP	53	216	3
TAP	53	240	5
TAP	53	264	2
TAP	53	288	6
TAP	53	312	1
HLD	53	336	7	96
TAP	54	48	1
TAP	54	72	0
HLD	54	96	2	48
TAP	54	144	6
TAP	54	168	7
HLD	54	192	5	48
TAP	54	240	2
TAP	54	264	3
HLD	54	288	1	48
TAP	54	336	5
TAP	54	360	4
HLD	55	0	6	48
TAP	55	48	2
TAP	55	72	3
HLD	55	96	2	48
TAP	55	144	5
TAP	55	168	4
TAP	55	192	5
TAP	55	216	4
TAP	55	240	6
TAP	55	264	3
TAP	55	288	7
TAP	55	312	2
HLD	55	336	0	96
TTP	56	48	1	E	0	M1
TTP	56	72	2	E	0	M1
TTP	56	96	3	E	0	M1
HLD	56	144	7	96
TTP	56	192	7	E	0	M1
TTP	56	216	6	E	0	M1
TTP	56	240	5	E	0	M1
HLD	56	288	0	96
TTP	56	336	2	E	0	M1
TTP	56	360	3	E	0	M1
TTP	57	0	4	E	0	M1
HLD	57	48	7	96
TTP	57	96	6	E	0	M1
TTP	57	120	5	E	0	M1
TTP	57	144	4	E	0	M1
XTP	57	240	1
XTP	57	240	6
XTP	57	288	2
XTP	57	288	5
XHO	57	336	3	96
XTP	57	336	4
TAP	58	48	4
TAP	58	72	3
TAP	58	96	5
TAP	58	120	3
TAP	58	144	5
TAP	58	168	3
TAP	58	192	6
TAP	58	216	3
TAP	58	240	6
TAP	58	264	3
TAP	58	288	7
TAP	58	312	3
TAP	58	336	7
TAP	58	360	3
TAP	59	0	7
TAP	59	24	3
TAP	59	48	7
TAP	59	72	3
TAP	59	96	7
TAP	59	120	2
TAP	59	144	7
TAP	59	168	2
TAP	59	192	7
TAP	59	216	1
TAP	59	240	7
TAP	59	264	1
TAP	59	288	7
TAP	59	312	0
TAP	59	336	7
TAP	59	360	0
BRK	60	0	1
BRK	60	0	6
TAP	60	96	4
TAP	60	96	5
BRK	60	144	3
BRK	60	144	6
TAP	60	240	2
TAP	60	240	3
BRK	60	288	1
BRK	60	288	4
TAP	61	0	4
TAP	61	0	5
BRK	61	48	3
BRK	61	48	7
TAP	61	144	2
TAP	61	144	3
BRK	61	192	0
BRK	61	192	4
TAP	61	240	5
BRK	61	288	2
BRK	61	288	6
TAP	62	0	0
TAP	62	0	4
TAP	62	48	0
TAP	62	48	4
TAP	62	96	1
TAP	62	96	5
TAP	62	144	1
TAP	62	144	5
TAP	62	192	2
TAP	62	192	6
TAP	62	240	2
TAP	62	240	6
TAP	62	288	3
TAP	62	288	7
TAP	62	336	3
TAP	62	336	7
BST	63	0	0
SSL	63	0	0	96	120	4
BRK	63	0	4
TAP	63	288	2
TAP	63	288	5
BRK	63	336	0
BRK	63	336	7
TAP	64	48	0
TAP	64	64	1
TAP	64	80	2
STR	64	96	6
SI_	64	96	6	96	48	0
TAP	64	144	1
TAP	64	160	2
TAP	64	176	3
STR	64	192	6
SI_	64	192	6	96	48	4
TAP	64	240	1
TAP	64	256	2
TAP	64	272	3
STR	64	288	6
SI_	64	288	6	96	48	2
TAP	64	336	0
TAP	64	352	1
TAP	64	368	2
BST	65	0	3
SI_	65	0	3	96	48	0
TAP	65	0	6
TAP	65	96	3
BST	65	96	7
SF_	65	96	7	96	48	3
BRK	65	192	7
BRK	65	288	1
BRK	65	288	5
STR	66	0	0
SI_	66	0	0	96	48	5
STR	66	48	5
SI_	66	48	5	96	48	0
STR	66	96	0
SI_	66	96	0	96	48	3
STR	66	144	3
SI_	66	144	3	96	48	0
STR	66	192	4
SCR	66	192	4	96	144	3
TAP	66	240	4
BRK	66	288	4
TAP	67	144	1
TAP	67	144	6
XTP	67	192	1
XST	67	192	6
SI_	67	192	6	96	48	3
XTP	67	216	2
XST	67	240	3
SI_	67	240	3	96	48	7
TAP	67	288	1
STR	67	336	1
SI_	67	336	1	96	48	3
TAP	68	48	1
STR	68	48	5
SI_	68	48	5	96	48	0
STR	68	144	2
SI_	68	144	2	96	48	6
TAP	68	144	5
TAP	68	240	2
STR	68	240	7
SCL	68	240	7	96	96	0
TTP	68	336	0	C	1	M1
TAP	68	336	7
TAP	69	144	2
TAP	69	144	6
STR	69	192	1
SI_	69	192	1	96	48	4
STR	69	240	4
SI_	69	240	4	96	48	0
TAP	69	288	5
STR	69	336	7
SCL	69	336	7	96	48	4
STR	70	48	3
SI_	70	48	3	96	48	7
TAP	70	48	7
TAP	70	144	2
TAP	70	144	3
HLD	70	192	1	72
TAP	70	264	0
TAP	70	288	1
TAP	70	336	2
TAP	70	336	7
TAP	71	0	1
TAP	71	0	6
STR	71	48	7
SI_	71	48	7	96	48	2
SI_	71	48	7	96	48	4
TAP	71	72	0
TAP	71	96	6
BRK	71	144	7
TTP	71	150	0	C	1	M1
TTP	71	150	1	B	0	M1
TTP	71	150	2	E	0	M1
TTP	71	150	5	B	0	M1
TTP	71	150	5	E	0	M1
BRK	71	336	0
BRK	71	336	7
TAP	72	48	6
TAP	72	64	5
TAP	72	80	4
STR	72	96	1
SI_	72	96	1	96	48	3
TAP	72	144	7
TAP	72	160	6
TAP	72	176	5
STR	72	192	1
SI_	72	192	1	96	48	7
TAP	72	240	6
TAP	72	256	5
TAP	72	272	4
STR	72	288	1
SI_	72	288	1	96	48	5
TAP	72	336	6
TAP	72	352	5
TAP	72	368	4
BRK	73	0	1
BST	73	0	3
SI_	73	0	3	96	48	7
BST	73	96	0
SF_	73	96	0	96	48	4
BRK	73	96	3
BRK	73	192	0
BRK	73	288	2
BRK	73	288	6
STR	74	0	7
SI_	74	0	7	96	48	2
STR	74	48	2
SI_	74	48	2	96	48	7
STR	74	96	7
SI_	74	96	7	96	48	4
STR	74	144	4
SI_	74	144	4	96	48	7
STR	74	192	3
SCL	74	192	3	96	144	4
TAP	74	240	3
BRK	74	288	3
TAP	75	144	2
TAP	75	168	4
TAP	75	192	2
TAP	75	240	1
TAP	75	240	5
TAP	75	288	2
TAP	75	288	6
STR	75	336	3
SI_	75	336	3	96	48	1
STR	75	336	7
SI_	75	336	7	96	48	5
TAP	76	48	3
STR	76	48	7
SI_	76	48	7	96	48	3
TAP	76	144	2
TAP	76	144	7
TAP	76	192	2
TAP	76	240	1
TAP	76	288	0
TAP	76	288	4
STR	76	336	0
SCR	76	336	0	96	48	3
STR	76	336	4
SCR	76	336	4	96	48	7
TAP	77	48	0
STR	77	48	4
SUL	77	48	4	96	120	3
TAP	77	144	6
TAP	77	240	5
TAP	77	288	5
TAP	77	336	2
TAP	78	0	1
TAP	78	0	4
TAP	78	96	2
TAP	78	96	6
HLD	78	144	2	240
TAP	78	144	6
HLD	79	0	1	272
HLD	79	192	5	80
TAP	79	288	0
HLD	79	288	4	0
HLD	79	304	3	0
TAP	79	304	7
HLD	79	320	2	0
TAP	79	320	6
HLD	79	336	1	0
TAP	79	336	5
HLD	79	352	0	0
TAP	79	352	4
TAP	79	368	3
HLD	79	368	7	0
BRK	80	0	2
HLD	80	0	6	0
TAP	80	240	4
TAP	80	264	3
TAP	80	288	4
TAP	80	336	3
TAP	80	336	5
TAP	81	0	6
HLD	81	48	6	48
TAP	81	96	5
TAP	81	120	6
TAP	81	144	5
TAP	81	168	6
TAP	81	192	4
TAP	81	216	3
TAP	81	240	2
TAP	81	264	1
TAP	81	288	0
TAP	81	288	7
TAP	81	312	6
TAP	81	336	5
TAP	81	360	4
TAP	82	0	1
STR	82	0	3
SCR	82	0	3	96	96	1
TAP	82	96	2
HLD	82	144	2	144
TAP	82	288	3
TAP	82	312	2
STR	82	336	1
SI_	82	336	1	96	48	4
TAP	82	336	4
TAP	83	48	1
STR	83	48	5
SI_	83	48	5	96	48	1
STR	83	144	2
SCL	83	144	2	96	48	7
TAP	83	144	5
TAP	83	240	2
STR	83	240	5
SUL	83	240	5	96	144	3
TAP	83	336	0
HLD	84	0	0	96
TAP	84	144	0
TAP	84	192	1
TAP	84	192	3
TAP	84	240	2
TAP	84	288	3
TAP	84	288	5
TAP	84	336	4
TAP	85	0	1
TAP	85	0	3
TAP	85	48	2
TAP	85	72	3
HLD	85	96	1	48
TAP	85	144	5
TAP	85	168	4
HLD	85	192	6	48
TAP	85	240	2
TAP	85	264	3
STR	85	288	1
SCR	85	288	1	96	96	7
TAP	85	336	0
TAP	85	360	7
BRK	86	0	1
XTP	86	144	6
XTP	86	168	5
XST	86	192	4
SI_	86	192	4	96	48	7
TAP	86	288	2
TAP	86	288	4
BST	87	0	0
SI_	87	0	0	96	48	5
BST	87	96	0
SI_	87	96	0	96	48	3
TAP	87	96	2
BST	87	192	0
SCL	87	192	0	96	48	5
TAP	87	192	6
BRK	87	288	0
STR	87	288	2
SCR	87	288	2	96	120	1
BRK	88	0	2
BRK	88	0	6
TAP	88	240	3
TAP	88	264	4
TAP	88	288	3
TAP	88	336	2
TAP	88	336	4
TAP	89	0	1
HLD	89	48	1	48
TAP	89	96	2
TAP	89	120	1
TAP	89	144	2
TAP	89	168	1
TAP	89	192	3
TAP	89	216	4
TAP	89	240	5
TAP	89	264	6
TAP	89	288	0
TAP	89	288	7
TAP	89	312	1
TAP	89	336	2
TAP	89	360	3
STR	90	0	4
SLL	90	0	4	96	72	0
TAP	90	0	6
TAP	90	96	7
HLD	90	144	7	96
TAP	90	240	0
TAP	90	264	6
TAP	90	288	1
TAP	90	312	5
TAP	90	336	2
TAP	90	360	4
HLD	91	0	0	48
TAP	91	48	3
TAP	91	72	1
HLD	91	96	7	48
TAP	91	144	4
TAP	91	168	6
HLD	91	192	0	48
STR	91	240	3
SCR	91	240	3	96	96	1
TAP	91	264	1
TAP	91	288	7
BRK	91	336	3
TAP	92	144	4
TAP	92	168	2
TAP	92	192	4
TAP	92	240	3
TAP	92	240	5
TAP	92	288	2
TAP	92	288	6
HLD	92	336	1	96
TAP	92	336	7
TAP	93	48	0
TAP	93	72	1
TAP	93	96	7
TAP	93	144	3
HLD	93	144	6	48
TAP	93	192	4
TAP	93	216	6
TAP	93	240	3
TAP	93	264	5
TAP	93	288	2
TAP	93	312	4
TAP	93	336	1
TAP	93	360	3
HLD	94	0	0	96
TAP	94	96	7
TAP	94	144	1
TAP	94	144	6
TAP	94	240	0
TAP	94	240	7
TAP	94	288	7
TAP	94	312	6
TAP	94	336	0
TAP	94	360	1
TAP	95	0	7
TAP	95	24	6
TAP	95	48	0
TAP	95	72	1
TAP	95	96	6
TAP	95	120	5
TAP	95	144	1
TAP	95	168	2
TAP	95	192	6
TAP	95	216	5
TAP	95	240	1
TAP	95	264	2
TAP	95	288	5
TAP	95	312	4
TAP	95	336	2
TAP	95	360	3
TAP	96	0	4
HLD	96	0	7	192
TAP	96	144	0
TAP	96	192	0
TAP	96	288	2
TAP	96	288	5
BRK	97	0	1
BRK	97	0	7
TAP	97	12	2
TAP	97	24	3
TAP	97	36	4
TAP	97	48	5
TAP	97	60	6
TAP	97	72	7
TAP	97	84	0
BRK	97	96	1
BRK	97	96	5
TAP	97	108	4
TAP	97	120	3
TAP	97	132	2
TAP	97	144	1
TAP	97	156	0
TAP	97	156	2
TAP	97	168	3
TAP	97	168	7
TAP	97	180	4
TAP	97	180	6
BRK	97	192	5
TAP	98	0	2
TAP	98	48	2
TAP	98	96	3
TAP	98	144	2
HLD	98	192	3	96
TAP	98	288	2
TAP	98	336	3
TAP	99	0	3
TAP	99	48	2
HLD	99	96	3	96
TAP	99	192	2
TAP	99	240	3
TAP	99	288	2
TAP	99	288	3
TAP	100	0	5
TAP	100	48	5
TAP	100	96	4
TAP	100	144	5
HLD	100	192	4	96
TAP	100	288	5
TAP	100	336	4
TAP	101	0	4
TAP	101	48	5
HLD	101	96	4	96
TAP	101	192	5
TAP	101	240	4
TAP	101	288	4
TAP	101	288	5
TAP	102	0	2
TAP	102	48	2
TAP	102	96	3
TAP	102	144	2
HLD	102	192	3	144
TAP	102	288	4
TAP	102	336	4
TAP	103	0	3
TAP	103	48	4
HLD	103	96	3	96
TAP	103	192	2
TAP	103	240	3
TAP	103	288	2
TAP	103	288	4
TAP	104	0	5
TAP	104	48	4
TAP	104	96	4
TAP	104	144	5
HLD	104	192	4	144
TAP	104	288	3
TAP	104	336	3
TAP	105	0	4
TAP	105	48	3
HLD	105	96	4	96
HLD	105	192	5	48
HLD	105	240	4	48
HLD	105	288	3	48
HLD	105	336	2	48
BRK	106	0	5
TAP	106	12	4
TAP	106	24	3
STR	106	36	2
SCR	106	36	2	96	444	5

T_REC_TAP	629
T_REC_BRK	47
T_REC_XTP	9
T_REC_HLD	54
T_REC_XHO	3
T_REC_STR	70
T_REC_BST	10
T_REC_XST	3
T_REC_TTP	57
T_REC_THO	0
T_REC_SLD	84
T_REC_ALL	966
T_NUM_TAP	768
T_NUM_BRK	57
T_NUM_HLD	57
T_NUM_SLD	84
T_NUM_ALL	966
T_JUDGE_TAP	825
T_JUDGE_HLD	151
T_JUDGE_SLD	84
T_JUDGE_ALL	1060
TTM_EACHPAIRS	139
TTM_SCR_TAP	384000
TTM_SCR_BRK	148200
TTM_SCR_HLD	57000
TTM_SCR_SLD	126000
TTM_SCR_ALL	715200
TTM_SCR_S	688250
TTM_SCR_SS	709500
TTM_RAT_ACV	10080

