VERSION	0.00.00	1.03.00
FES_MODE	0
BPM_DEF	201.000	202.000	202.000	105.000
MET_DEF	4	4
RESOLUTION	384
CLK_DEF	384
COMPATIBLE_CODE	MA2

BPM	0	0	201.000
BPM	10	0	199.000
BPM	14	0	201.000
BPM	30	0	198.000
BPM	46	0	200.000
BPM	64	0	202.000
BPM	97	0	196.000
BPM	97	192	190.000
BPM	98	0	198.000
BPM	99	0	196.000
BPM	100	0	194.000
BPM	103	0	192.000
BPM	104	0	189.000
BPM	104	96	187.000
BPM	104	192	183.000
BPM	104	288	177.000
BPM	105	0	171.000
BPM	105	96	168.000
BPM	105	192	151.000
BPM	105	288	131.000
BPM	105	360	105.000
BPM	106	0	132.000
MET	0	0	4	4

HLD	2	0	5	768
HLD	4	0	4	768
HLD	6	0	3	768
HLD	8	0	2	768
STR	10	0	1
SXR	10	0	1	96	480	4
STR	12	0	7
SI_	12	0	7	96	144	4
XTP	13	0	3
XTP	13	0	4
TAP	13	192	2
TAP	13	240	2
TAP	13	288	3
TAP	13	336	1
STR	14	0	7
SI_	14	0	7	96	48	3
STR	14	96	0
SI_	14	96	0	96	48	2
STR	14	192	6
SI_	14	192	6	96	48	4
XTP	14	288	0
TAP	15	0	2
TAP	15	48	2
TAP	15	96	3
TAP	15	144	1
TAP	15	192	5
TAP	15	240	5
TAP	15	288	4
TAP	15	336	6
TAP	16	0	0
TAP	16	48	0
TAP	16	96	1
TAP	16	96	7
TAP	16	192	5
TAP	16	240	5
TAP	16	288	4
TAP	16	336	6
TAP	17	0	2
TAP	17	48	2
TAP	17	96	3
TAP	17	144	1
TAP	17	192	7
TAP	17	288	2
TAP	17	288	6
STR	18	0	0
SI_	18	0	0	96	48	4
STR	18	96	7
SI_	18	96	7	96	48	5
STR	18	192	1
SI_	18	192	1	96	48	3
XTP	18	288	7
TAP	19	0	5
TAP	19	48	5
TAP	19	96	4
TAP	19	144	6
TAP	19	192	2
TAP	19	240	2
TAP	19	288	3
TAP	19	336	1
TAP	20	0	7
TAP	20	48	7
TAP	20	96	0
TAP	20	96	6
TAP	20	192	2
TAP	20	240	2
TAP	20	288	3
TAP	20	336	1
TAP	21	0	7
TAP	21	48	7
STR	21	96	0
SI_	21	96	0	96	48	4
STR	21	192	6
SI_	21	192	6	96	48	2
TAP	21	288	1
HLD	22	0	1	96
HLD	22	96	3	96
HLD	22	192	4	96
TAP	22	288	6
TAP	22	336	6
TAP	23	48	0
TAP	23	48	7
TAP	23	144	1
TAP	23	144	3
TAP	23	240	3
TAP	23	240	4
TAP	23	336	4
TAP	23	336	6
TAP	24	48	7
TAP	24	96	7
TAP	24	144	0
HLD	24	192	0	96
TAP	24	288	3
HLD	24	336	3	96
TAP	25	48	1
TAP	25	144	3
TAP	25	144	4
TAP	25	240	4
TAP	25	240	6
STR	25	288	4
SCL	25	288	4	96	144	7
TAP	25	288	6
TAP	26	0	5
TAP	26	240	1
TAP	26	240	3
TAP	26	288	1
STR	26	288	3
SCR	26	288	3	96	144	0
TAP	27	0	2
TAP	27	240	4
TAP	27	240	6
STR	27	288	4
SI_	27	288	4	96	48	0
TAP	27	288	6
HLD	28	0	7	96
HLD	28	144	0	96
HLD	28	144	6	96
HLD	28	288	1	96
HLD	28	288	5	96
TAP	29	48	2
TAP	29	48	4
TAP	29	96	2
TAP	29	96	4
STR	29	192	3
SI_	29	192	3	96	48	7
STR	29	288	5
SCL	29	288	5	96	384	6
TTP	30	0	0	C	1	M1
THO	32	0	0	384	C	0	M1
TTP	34	0	1	E	0	M1
TTP	34	96	2	E	0	M1
TTP	34	192	3	E	0	M1
TTP	34	288	7	E	0	M1
TTP	35	0	6	E	0	M1
TTP	35	96	5	E	0	M1
TTP	35	192	0	C	0	M1
TTP	35	288	0	E	0	M1
TTP	36	0	1	E	0	M1
TTP	36	96	2	E	0	M1
TTP	36	192	3	E	0	M1
TTP	36	288	7	E	0	M1
TTP	37	0	6	E	0	M1
TTP	37	96	5	E	0	M1
TTP	37	192	4	E	0	M1
HLD	38	0	2	96
TAP	38	96	3
TAP	38	144	2
TAP	38	192	1
HLD	38	288	5	96
TAP	39	0	4
TAP	39	48	5
TAP	39	96	6
TAP	39	192	3
TAP	39	240	2
TAP	39	288	4
TAP	39	336	5
HLD	40	0	1	96
TAP	40	96	3
TAP	40	144	1
TAP	40	192	0
HLD	40	288	6	96
TAP	41	0	4
TAP	41	48	6
TAP	41	96	7
TAP	41	192	0
TAP	41	240	1
TAP	41	288	7
TAP	41	336	6
HLD	42	0	1	96
TAP	42	96	3
TAP	42	144	1
TAP	42	192	0
HLD	42	288	6	96
TAP	43	0	4
TAP	43	48	6
TAP	43	96	7
TAP	43	192	2
TAP	43	240	1
TAP	43	288	5
TAP	43	336	6
TAP	44	0	2
TAP	44	48	2
TAP	44	96	3
TAP	44	144	1
TAP	44	192	0
TAP	44	288	5
TAP	44	336	5
TAP	45	0	4
TAP	45	48	6
TAP	45	96	7
TTP	45	192	1	E	0	M1
TTP	45	216	1	B	0	M1
TTP	45	240	2	B	0	M1
TTP	45	264	3	E	0	M1
TTP	45	288	7	E	0	M1
TTP	45	312	6	B	0	M1
TTP	45	336	5	B	0	M1
TTP	45	360	5	E	0	M1
HLD	46	0	0	96
STR	46	96	3
SLL	46	96	3	96	96	7
SLR	46	96	3	96	96	7
TAP	47	0	0
TAP	47	0	6
TAP	47	48	0
TAP	47	48	6
TAP	47	96	1
TAP	47	96	5
TAP	47	144	1
TAP	47	144	5
TAP	47	192	2
TAP	47	192	4
TAP	47	240	2
TAP	47	240	4
TAP	47	288	3
TAP	47	336	3
TAP	48	0	5
TAP	48	48	5
TAP	48	96	2
TAP	48	144	2
TAP	48	192	4
TAP	48	240	4
TAP	48	288	3
TAP	48	336	2
TAP	49	0	4
TAP	49	48	5
TAP	49	96	0
TAP	49	144	1
TAP	49	192	7
TAP	49	240	6
HLD	49	288	3	96
STR	50	0	0
SLL	50	0	0	96	96	4
SLR	50	0	0	96	96	4
TAP	50	288	3
TAP	50	288	5
TAP	50	336	3
TAP	50	336	5
TAP	51	0	2
TAP	51	0	6
TAP	51	48	2
TAP	51	48	6
TAP	51	96	1
TAP	51	96	7
TAP	51	144	1
TAP	51	144	7
TAP	51	192	0
TAP	51	240	0
TAP	51	288	6
TAP	51	336	6
STR	52	0	1
SI_	52	0	1	96	48	5
STR	52	144	7
SI_	52	144	7	96	48	4
STR	52	288	0
SI_	52	288	0	96	48	3
STR	53	48	5
SI_	53	48	5	96	48	1
TAP	53	192	0
TAP	53	240	0
TAP	53	288	7
TAP	53	336	2
TAP	53	336	6
TAP	54	48	5
HLD	54	96	5	48
TAP	54	144	7
HLD	54	192	7	48
TAP	54	240	0
HLD	54	288	0	48
TAP	54	336	2
HLD	55	0	2	48
TAP	55	48	5
HLD	55	96	5	48
TAP	55	144	3
HLD	55	192	3	48
TAP	55	240	4
TAP	55	288	4
TAP	55	336	2
HLD	55	336	5	96
TAP	56	48	3
TAP	56	96	2
TAP	56	144	1
TAP	56	192	4
TAP	56	240	5
TAP	56	288	6
TAP	56	336	2
TAP	57	0	1
TAP	57	48	0
TAP	57	96	4
HLD	57	144	4	96
TAP	57	240	3
BRK	57	336	1
BRK	57	336	6
TAP	58	48	0
TAP	58	72	7
TAP	58	96	0
TAP	58	120	7
TAP	58	144	0
TAP	58	168	7
TAP	58	192	0
TAP	58	216	7
TAP	58	240	0
TAP	58	264	7
TAP	58	288	0
TAP	58	312	7
TAP	58	336	0
TAP	58	360	7
TAP	59	0	1
TAP	59	24	6
TAP	59	48	1
TAP	59	72	6
TAP	59	96	1
TAP	59	120	6
TAP	59	144	1
TAP	59	168	6
TAP	59	192	2
TAP	59	216	5
TAP	59	240	2
TAP	59	264	5
TAP	59	288	2
TAP	59	312	5
TAP	59	336	2
TAP	59	360	5
STR	60	0	3
SI_	60	0	3	96	48	0
STR	60	144	4
SI_	60	144	4	96	48	7
STR	60	288	3
SI_	60	288	3	96	48	0
STR	61	48	4
SI_	61	48	4	96	48	7
TAP	61	192	3
TAP	61	288	1
TAP	61	288	5
TAP	62	0	6
TAP	62	48	6
TAP	62	96	4
TAP	62	144	4
TAP	62	192	3
TAP	62	240	3
TAP	62	288	1
TAP	62	336	1
TTP	63	0	0	C	1	M1
BRK	63	336	7
TAP	64	48	2
TAP	64	72	3
TAP	64	96	1
TAP	64	144	5
TAP	64	168	4
TAP	64	192	6
TAP	64	240	2
TAP	64	264	3
TAP	64	288	1
TAP	64	336	5
TAP	64	360	4
STR	65	0	6
SI_	65	0	6	96	48	2
STR	65	96	1
SI_	65	96	1	96	48	7
STR	65	192	5
SI_	65	192	5	96	48	3
HLD	65	288	2	96
TAP	66	0	5
TAP	66	96	6
HLD	66	144	6	96
TAP	66	240	4
STR	66	288	4
SI_	66	288	4	96	48	1
SI_	66	288	4	96	48	7
TAP	67	144	0
TAP	67	192	0
TAP	67	240	1
TAP	67	240	7
TAP	67	288	2
TAP	67	288	6
TAP	67	336	3
HLD	67	336	5	96
HLD	68	48	7	96
HLD	68	144	0	96
HLD	68	240	2	96
STR	68	336	4
SI_	68	336	4	96	48	7
TAP	69	144	0
TAP	69	192	0
TAP	69	240	1
TAP	69	240	7
TAP	69	288	2
TAP	69	288	6
TAP	69	336	3
HLD	69	336	5	96
TAP	70	48	4
TAP	70	144	4
TAP	70	144	6
TAP	70	192	4
TAP	70	192	6
TAP	70	264	3
TAP	70	264	7
TAP	70	336	0
TAP	70	336	2
STR	71	0	0
SUR	71	0	0	96	144	5
STR	71	0	2
SCL	71	0	2	96	144	5
BRK	71	336	0
TAP	72	48	5
TAP	72	72	4
TAP	72	96	6
TAP	72	144	2
TAP	72	168	3
TAP	72	192	1
TAP	72	240	5
TAP	72	264	4
TAP	72	288	6
TAP	72	336	2
TAP	72	360	3
STR	73	0	1
SI_	73	0	1	96	48	5
STR	73	96	6
SI_	73	96	6	96	48	0
STR	73	192	2
SI_	73	192	2	96	48	4
HLD	73	288	6	96
TAP	74	0	0
TAP	74	96	1
HLD	74	144	1	96
TAP	74	240	7
STR	74	288	7
SI_	74	288	7	96	48	2
SI_	74	288	7	96	48	4
TAP	75	144	3
TAP	75	192	3
TAP	75	240	2
TAP	75	240	4
TAP	75	288	1
TAP	75	288	5
TAP	75	336	0
HLD	75	336	6	96
HLD	76	48	4	96
TAP	76	144	3
TAP	76	192	3
TAP	76	240	1
TAP	76	288	1
STR	76	336	7
SI_	76	336	7	96	48	3
STR	77	48	2
SI_	77	48	2	96	48	5
STR	77	144	6
SI_	77	144	6	96	48	2
TAP	77	240	0
TAP	77	288	0
TAP	77	336	7
HLD	78	0	7	96
TAP	78	96	4
HLD	78	144	4	240
BST	79	0	3
SI_	79	0	3	96	48	7
HLD	79	192	0	96
BST	79	288	7
SI_	79	288	7	96	48	4
TAP	80	0	2
TAP	80	96	1
TAP	80	96	3
TAP	80	192	0
TAP	80	240	7
TAP	80	288	2
TAP	80	288	6
TAP	81	0	5
TAP	81	48	5
TAP	81	96	4
TAP	81	144	7
TAP	81	192	2
TAP	81	240	2
TAP	81	288	3
TAP	81	336	0
HLD	82	0	5	96
TAP	82	96	4
TAP	82	144	3
TAP	82	192	5
TAP	82	240	4
TAP	82	288	3
HLD	82	336	2	96
HLD	83	48	0	96
HLD	83	144	7	96
HLD	83	240	5	96
TAP	83	336	3
TAP	84	0	3
HLD	84	96	2	96
TAP	84	96	4
TAP	84	192	3
TAP	84	240	4
TAP	84	288	2
STR	85	0	0
SI_	85	0	0	96	48	4
STR	85	0	1
SI_	85	0	1	96	48	4
STR	85	192	6
SI_	85	192	6	96	48	3
STR	85	192	7
SI_	85	192	7	96	48	3
HLD	86	0	0	96
HLD	86	0	1	96
TAP	86	192	2
TAP	86	192	3
TAP	86	288	4
TAP	86	288	5
STR	87	0	6
SI_	87	0	6	96	48	1
STR	87	96	2
SI_	87	96	2	96	48	5
STR	87	192	7
SI_	87	192	7	96	48	3
STR	87	288	0
SCR	87	288	0	96	144	5
HLD	88	0	7	240
TAP	88	240	0
HLD	88	288	0	96
TAP	89	0	4
TAP	89	48	5
TAP	89	96	3
TAP	89	144	2
TAP	89	192	5
TAP	89	240	6
TAP	89	288	2
TAP	89	336	1
HLD	90	0	7	96
TAP	90	96	0
TAP	90	144	0
TAP	90	240	1
TAP	90	240	5
TAP	90	288	1
TAP	90	288	5
STR	91	0	2
SI_	91	0	2	96	48	7
STR	91	0	6
SI_	91	0	6	96	48	3
STR	91	192	1
SI_	91	192	1	96	48	4
STR	91	192	5
SI_	91	192	5	96	48	0
TAP	92	0	6
TAP	92	96	4
TAP	92	96	5
TAP	92	192	3
TAP	92	240	3
TAP	92	288	4
HLD	92	336	2	96
TAP	93	48	3
TAP	93	96	3
TAP	93	192	2
TAP	93	192	4
TAP	93	288	3
TAP	93	288	5
HLD	94	0	2	96
HLD	94	0	6	96
HLD	94	144	1	96
HLD	94	144	5	96
TAP	94	288	2
TAP	94	288	6
TAP	94	336	3
TAP	95	0	4
TAP	95	0	7
TAP	95	96	1
TAP	95	96	5
TAP	95	144	4
TAP	95	192	0
TAP	95	192	3
TAP	95	288	2
TAP	95	288	6
HLD	96	0	1	144
TAP	96	0	4
TAP	96	144	3
TAP	96	192	3
TAP	96	288	0
TAP	96	288	6
XTP	97	0	0
XTP	97	24	1
XTP	97	48	2
XTP	97	72	3
XTP	97	96	4
XTP	97	120	5
XTP	97	144	6
XTP	97	168	7
XTP	97	192	0
TAP	98	0	3
TAP	98	48	2
TAP	98	96	4
TAP	98	144	5
HLD	98	192	3	96
TAP	98	288	4
TAP	98	336	5
TAP	99	0	3
TAP	99	48	2
HLD	99	96	4	96
TAP	99	192	3
TAP	99	240	2
TAP	99	288	4
TAP	99	336	5
TAP	100	0	3
TAP	100	48	2
TAP	100	96	4
TAP	100	144	5
HLD	100	192	3	96
TAP	100	288	4
TAP	100	336	5
TAP	101	0	3
TAP	101	48	2
HLD	101	96	4	96
TAP	101	192	3
TAP	101	240	2
TAP	101	288	4
TAP	101	336	5
TAP	102	0	0
TAP	102	48	1
TAP	102	96	7
TAP	102	144	6
HLD	102	192	0	96
TAP	102	288	7
TAP	102	336	6
TAP	103	0	0
TAP	103	48	1
HLD	103	96	7	96
TAP	103	192	0
TAP	103	240	1
TAP	103	288	7
TAP	103	336	6
TAP	104	0	3
TAP	104	48	2
TAP	104	96	4
TAP	104	144	5
HLD	104	192	3	96
TAP	104	288	4
TAP	104	336	5
TAP	105	0	3
TAP	105	48	2
HLD	105	96	4	96
TAP	105	192	3
TAP	105	240	2
STR	105	288	4
SCL	105	288	4	96	96	1
TAP	105	336	5

T_REC_TAP	415
T_REC_BRK	4
T_REC_XTP	13
T_REC_HLD	69
T_REC_XHO	0
T_REC_STR	52
T_REC_BST	2
T_REC_XST	0
T_REC_TTP	25
T_REC_THO	1
T_REC_SLD	58
T_REC_ALL	639
T_NUM_TAP	505
T_NUM_BRK	6
T_NUM_HLD	70
T_NUM_SLD	58
T_NUM_ALL	639
T_JUDGE_TAP	511
T_JUDGE_HLD	203
T_JUDGE_SLD	58
T_JUDGE_ALL	772
TTM_EACHPAIRS	73
TTM_SCR_TAP	252500
TTM_SCR_BRK	15600
TTM_SCR_HLD	70000
TTM_SCR_SLD	87000
TTM_SCR_ALL	425100
TTM_SCR_S	411800
TTM_SCR_SS	424500
TTM_RAT_ACV	10014

