VERSION	0.00.00	1.03.00
FES_MODE	0
BPM_DEF	201.000	202.000	202.000	105.000
MET_DEF	4	4
RESOLUTION	384
CLK_DEF	384
COMPATIBLE_CODE	MA2

BPM	0	0	201.000
BPM	10	0	199.000
BPM	14	0	201.000
BPM	30	0	198.000
BPM	46	0	200.000
BPM	64	0	202.000
BPM	97	0	196.000
BPM	97	192	190.000
BPM	98	0	198.000
BPM	99	0	196.000
BPM	100	0	194.000
BPM	103	0	192.000
BPM	104	0	189.000
BPM	104	96	187.000
BPM	104	192	183.000
BPM	104	288	177.000
BPM	105	0	171.000
BPM	105	96	168.000
BPM	105	192	151.000
BPM	105	288	131.000
BPM	105	360	105.000
BPM	106	0	132.000
MET	0	0	4	4

HLD	2	0	5	768
HLD	4	0	4	384
HLD	5	0	3	384
TAP	6	0	2
TAP	7	0	1
TAP	8	0	0
TAP	9	0	7
TTP	10	0	0	C	1	L1
TTP	12	0	4	E	0	L1
XHO	13	0	3	192
XHO	13	0	4	192
BRK	14	0	5
TAP	14	96	5
TAP	14	192	4
TAP	14	192	5
TAP	14	288	4
TAP	14	288	5
TAP	15	0	6
TAP	15	96	7
TAP	15	192	1
TAP	15	288	1
TAP	16	0	0
TAP	16	0	1
TAP	16	96	0
TAP	16	96	1
TAP	16	192	2
TAP	16	288	3
TAP	17	0	3
TAP	17	0	4
TAP	17	96	2
TAP	17	96	5
TAP	17	192	1
TAP	17	192	6
TAP	17	288	0
TAP	17	288	7
TAP	18	0	6
TAP	18	48	6
TAP	18	96	6
TAP	18	192	6
TAP	18	192	7
TAP	18	288	6
TAP	18	288	7
TAP	19	0	5
TAP	19	96	4
TAP	19	192	2
TAP	19	240	2
TAP	19	288	2
TAP	20	0	2
TAP	20	0	3
TAP	20	96	2
TAP	20	96	3
TAP	20	192	1
TAP	20	288	0
TAP	21	0	6
TAP	21	96	7
BRK	21	192	0
BRK	21	192	6
TAP	22	0	5
TAP	22	96	5
TAP	22	192	4
TAP	22	288	4
TAP	23	0	3
TAP	23	96	3
TAP	23	192	2
TAP	23	192	4
TAP	24	0	1
TAP	24	96	1
TAP	24	192	0
TAP	24	288	0
TAP	25	0	7
TAP	25	96	7
TAP	25	192	0
TAP	25	192	6
HLD	26	0	1	96
TAP	26	96	0
TAP	26	192	0
TAP	26	192	1
HLD	27	0	6	96
TAP	27	96	7
TAP	27	192	6
TAP	27	192	7
TAP	28	0	1
TAP	28	96	0
TAP	28	96	1
TAP	28	192	6
TAP	28	288	6
TAP	28	288	7
TAP	29	0	5
TAP	29	96	4
TAP	29	96	5
TAP	29	192	2
TAP	29	288	3
TAP	29	288	4
BRK	30	0	2
BRK	30	0	5
TTP	32	0	5	E	0	L1
TTP	33	0	3	E	0	L1
THO	34	0	0	768	C	1	L1
XHO	37	0	0	192
XHO	37	0	7	192
TTP	38	0	6	B	0	L1
TTP	38	192	7	B	0	L1
TTP	39	0	0	B	0	L1
TTP	39	192	1	B	0	L1
TTP	40	0	2	B	0	L1
TTP	40	192	3	B	0	L1
TTP	41	0	4	B	0	L1
TTP	41	192	5	B	0	L1
TTP	42	0	6	B	0	L1
TTP	42	0	7	B	0	L1
TTP	42	192	0	B	0	L1
TTP	42	192	1	B	0	L1
TTP	43	0	2	B	0	L1
TTP	43	0	3	B	0	L1
TTP	43	192	4	B	0	L1
TTP	43	192	5	B	0	L1
TTP	44	0	3	E	0	L1
TTP	44	0	5	E	0	L1
TTP	44	192	2	B	0	L1
TTP	44	192	5	B	0	L1
TTP	45	0	1	B	0	L1
TTP	45	0	6	B	0	L1
THO	45	192	0	192	C	1	L1
XST	47	0	7
SI_	47	0	7	96	192	3
STR	48	0	2
SI_	48	0	2	96	192	7
STR	49	0	6
SI_	49	0	6	96	192	2
STR	50	0	1
SI_	50	0	1	96	192	4
STR	51	0	5
SI_	51	0	5	96	192	0
TAP	52	0	1
TAP	52	96	1
TAP	52	192	0
TAP	52	288	0
TAP	53	0	0
TAP	53	0	7
TAP	53	96	1
TAP	53	96	6
TAP	53	192	2
TAP	53	192	5
XHO	54	0	6	192
HLD	54	192	7	192
HLD	55	0	0	192
TAP	55	192	1
XHO	56	0	2	192
HLD	56	192	3	192
HLD	57	0	4	192
TAP	57	192	5
TAP	58	0	6
TAP	58	96	6
TAP	58	192	7
TAP	58	288	7
TAP	59	0	0
TAP	59	96	0
TAP	59	192	1
TAP	59	288	1
TAP	60	0	2
TAP	60	96	2
TAP	60	96	3
TAP	60	192	5
TAP	60	288	4
TAP	60	288	5
TAP	61	0	6
TAP	61	96	6
TAP	61	96	7
TAP	61	192	1
TAP	61	288	0
TAP	61	288	1
TAP	62	0	2
TAP	62	96	3
TAP	62	96	4
TAP	62	192	2
TAP	62	192	5
TAP	62	288	1
TAP	62	288	6
BRK	63	0	0
BRK	63	0	7
XTP	63	336	1
XTP	63	336	6
TAP	64	48	4
TAP	64	48	5
TAP	64	144	4
TAP	64	144	5
TAP	64	240	4
TAP	64	240	5
XTP	64	336	6
XTP	65	48	7
XTP	65	144	0
XTP	65	240	1
TAP	65	336	2
TAP	66	48	2
TAP	66	48	3
TAP	66	144	5
TAP	66	240	4
TAP	66	240	5
TAP	66	336	3
TAP	67	48	3
TAP	67	48	4
TAP	67	144	2
TAP	67	144	5
TAP	67	336	6
TAP	68	48	6
TAP	68	144	7
TAP	68	240	7
TAP	68	336	0
TAP	69	48	0
TAP	69	144	1
TAP	69	144	7
TAP	69	336	2
TAP	70	48	2
TAP	70	144	3
TAP	70	240	3
TAP	70	336	3
TAP	70	336	4
TAP	71	0	3
TAP	71	0	4
XTP	71	96	2
XTP	71	96	5
XTP	71	144	2
XTP	71	144	5
XTP	71	336	1
XTP	71	336	6
TAP	72	48	2
TAP	72	48	3
TAP	72	144	2
TAP	72	144	3
TAP	72	240	2
TAP	72	240	3
XTP	72	336	1
XTP	73	48	0
XTP	73	144	7
XTP	73	240	6
TAP	73	336	5
TAP	74	48	4
TAP	74	48	5
TAP	74	144	2
TAP	74	240	2
TAP	74	240	3
TAP	74	336	4
TAP	75	48	3
TAP	75	48	4
TAP	75	144	2
TAP	75	144	5
HLD	75	336	6	96
TAP	76	48	7
TAP	76	144	6
TAP	76	144	7
HLD	76	336	1	96
TAP	77	48	0
TAP	77	144	0
TAP	77	144	1
XST	78	0	0
SCR	78	0	0	96	192	3
XST	78	0	7
SCL	78	0	7	96	192	4
STR	79	0	3
SI_	79	0	3	96	192	0
STR	79	0	4
SI_	79	0	4	96	192	7
TTP	80	0	0	C	1	L1
TAP	81	0	7
TAP	81	48	7
TAP	81	96	7
TAP	81	192	1
TAP	81	240	1
TAP	81	288	1
STR	82	0	2
SCL	82	0	2	96	192	7
TAP	82	0	3
TAP	83	0	6
TAP	83	96	5
TAP	83	192	4
TAP	83	288	3
HLD	84	0	2	96
HLD	84	0	4	96
HLD	84	192	3	96
HLD	84	192	5	96
TAP	85	0	2
TAP	85	96	1
TAP	85	192	0
TAP	85	288	7
HLD	86	0	0	96
HLD	86	0	6	96
HLD	86	192	1	96
HLD	86	192	7	96
BRK	87	0	2
BRK	87	96	3
BRK	87	192	4
BRK	87	288	5
BST	88	0	6
SUL	88	0	6	96	192	2
TAP	89	0	1
TAP	89	48	1
TAP	89	96	1
TAP	89	192	6
TAP	89	240	6
TAP	89	288	6
TAP	90	0	4
STR	90	0	5
SCR	90	0	5	96	192	0
TAP	91	0	1
TAP	91	96	2
TAP	91	192	3
TAP	91	288	4
HLD	92	0	5	192
TAP	92	192	4
TAP	92	288	4
TAP	92	288	5
HLD	93	0	6	192
TAP	93	0	7
TAP	93	192	7
TAP	93	288	0
TAP	94	0	0
TAP	94	0	7
TAP	94	96	1
TAP	94	192	2
TAP	94	288	3
TAP	94	288	4
TAP	94	336	3
TAP	94	336	4
TAP	95	0	3
TAP	95	0	4
TAP	95	96	2
TAP	95	96	5
TAP	95	144	2
TAP	95	144	5
TAP	95	192	2
TAP	95	192	5
TAP	95	288	1
TAP	95	288	6
TAP	95	336	1
TAP	95	336	6
HLD	96	0	1	192
HLD	96	0	6	192
TAP	97	0	0
TAP	97	0	7
TAP	97	96	1
TAP	97	96	6
BRK	97	192	2
BRK	97	192	5
XST	98	0	7
SCL	98	0	7	96	384	2
STR	100	0	0
SCR	100	0	0	96	384	5
STR	102	0	7
SCL	102	0	7	96	384	2
HLD	104	0	1	384
HLD	105	0	7	192
TAP	105	192	0
STR	106	0	1
SSL	106	0	1	96	288	5

T_REC_TAP	233
T_REC_BRK	13
T_REC_XTP	16
T_REC_HLD	25
T_REC_XHO	6
T_REC_STR	11
T_REC_BST	1
T_REC_XST	4
T_REC_TTP	27
T_REC_THO	2
T_REC_SLD	16
T_REC_ALL	354
T_NUM_TAP	291
T_NUM_BRK	14
T_NUM_HLD	33
T_NUM_SLD	16
T_NUM_ALL	354
T_JUDGE_TAP	305
T_JUDGE_HLD	144
T_JUDGE_SLD	16
T_JUDGE_ALL	465
TTM_EACHPAIRS	81
TTM_SCR_TAP	145500
TTM_SCR_BRK	36400
TTM_SCR_HLD	33000
TTM_SCR_SLD	24000
TTM_SCR_ALL	238900
TTM_SCR_S	230400
TTM_SCR_SS	237500
TTM_RAT_ACV	10058

