VERSION	0.00.00	1.03.00
FES_MODE	0
BPM_DEF	201.000	202.000	202.000	105.000
MET_DEF	4	4
RESOLUTION	384
CLK_DEF	384
COMPATIBLE_CODE	MA2

BPM	0	0	201.000
BPM	10	0	199.000
BPM	14	0	201.000
BPM	30	0	198.000
BPM	46	0	200.000
BPM	64	0	202.000
BPM	97	0	196.000
BPM	97	192	190.000
BPM	98	0	198.000
BPM	99	0	196.000
BPM	100	0	194.000
BPM	103	0	192.000
BPM	104	0	189.000
BPM	104	96	187.000
BPM	104	192	183.000
BPM	104	288	177.000
BPM	105	0	171.000
BPM	105	96	168.000
BPM	105	192	151.000
BPM	105	288	131.000
BPM	105	360	105.000
BPM	106	0	132.000
MET	0	0	4	4

TAP	10	0	0
TAP	11	0	0
TAP	12	0	7
TAP	13	0	7
BRK	14	0	0
TAP	14	192	0
TAP	15	0	1
TAP	16	0	2
TAP	16	192	2
TAP	17	0	3
TAP	18	0	4
TAP	18	192	4
TAP	19	0	5
TAP	20	0	6
TAP	20	192	6
TAP	21	0	0
TAP	21	0	7
TAP	22	0	7
TAP	22	192	7
TAP	23	0	6
TAP	23	0	7
TAP	24	0	5
TAP	24	192	5
TAP	25	0	4
TAP	25	0	5
TAP	26	0	2
TAP	26	192	2
TAP	27	0	2
TAP	27	0	3
TAP	28	0	1
TAP	28	192	1
TAP	29	0	0
TAP	29	0	1
STR	30	0	7
SI_	30	0	7	96	480	4
TAP	33	0	0
STR	34	0	0
SI_	34	0	0	96	480	3
TAP	37	0	7
TTP	38	0	0	E	0	L1
TTP	39	0	1	E	0	L1
TTP	40	0	2	E	0	L1
TTP	41	0	3	E	0	L1
TTP	42	0	4	E	0	L1
TTP	43	0	5	E	0	L1
TTP	44	0	6	E	0	L1
TTP	45	0	0	C	0	L1
BRK	46	0	7
TAP	46	192	7
TAP	47	0	6
TAP	47	0	7
TAP	47	192	6
TAP	47	192	7
TAP	48	0	5
TAP	48	192	5
TAP	49	0	4
TAP	49	0	5
TAP	50	0	3
TAP	50	192	3
TAP	51	0	2
TAP	51	0	3
TAP	51	192	2
TAP	51	192	3
TAP	52	0	1
TAP	52	192	1
XTP	53	0	0
XTP	53	0	7
TAP	54	96	0
TAP	54	288	0
TAP	55	96	1
TAP	55	192	1
TAP	55	288	1
TAP	56	96	2
TAP	56	288	2
TAP	57	96	3
TAP	57	192	3
TAP	57	288	3
TAP	58	96	4
TAP	58	288	4
TAP	59	96	5
TAP	59	192	5
TAP	59	288	5
TAP	60	96	6
TAP	60	192	6
TAP	60	288	6
TAP	61	96	7
TAP	61	192	7
TAP	61	288	7
TAP	62	96	0
TAP	62	192	0
TAP	62	288	0
XTP	63	0	0
XTP	63	0	7
XTP	63	336	7
XTP	64	48	7
XTP	64	144	7
XTP	64	240	7
XTP	64	336	6
XTP	65	48	6
XTP	65	144	6
XTP	65	144	7
TAP	65	336	5
TAP	66	48	5
TAP	66	144	5
TAP	66	240	5
TAP	66	336	4
TAP	67	48	4
TAP	67	144	3
TAP	67	144	4
TAP	67	336	2
TAP	68	48	2
TAP	68	144	2
TAP	68	240	2
TAP	68	336	1
TAP	69	48	1
TAP	69	144	0
TAP	69	144	1
TAP	69	336	7
TAP	70	48	7
TAP	70	144	0
TAP	70	240	0
TAP	70	336	0
TAP	70	336	7
TAP	71	48	0
TAP	71	48	7
XTP	71	144	0
XTP	71	144	7
TAP	71	336	1
TAP	72	48	1
TAP	72	144	1
TAP	72	240	1
TAP	72	336	2
TAP	73	48	2
TAP	73	144	2
TAP	73	144	3
TAP	73	336	4
TAP	74	48	4
TAP	74	144	4
TAP	74	240	4
TAP	74	336	5
TAP	75	48	5
TAP	75	144	4
TAP	75	144	5
TAP	75	336	6
TAP	76	48	6
TAP	76	144	6
TAP	76	240	6
TAP	76	336	7
TAP	77	48	7
TAP	77	144	7
STR	77	240	0
SI_	77	240	0	96	432	3
STR	77	240	7
SI_	77	240	7	96	432	4
TAP	80	0	2
TAP	80	192	2
HLD	81	0	2	192
HLD	81	0	3	192
TAP	82	0	1
TAP	82	192	1
XTP	83	0	0
XTP	83	0	1
TAP	84	0	7
TAP	84	192	7
HLD	85	0	6	192
HLD	85	0	7	192
TAP	86	0	5
TAP	86	192	5
TAP	87	0	4
TAP	87	0	5
TAP	88	0	3
TAP	88	96	3
TAP	88	192	3
TAP	88	192	4
TAP	89	0	5
TAP	89	96	5
TAP	89	192	4
TAP	89	192	5
TAP	90	0	6
TAP	90	96	6
TAP	90	192	6
TAP	90	192	7
TAP	91	0	0
TAP	91	96	0
TAP	91	192	0
TAP	91	192	7
TAP	92	0	0
TAP	92	96	0
TAP	92	192	1
TAP	92	288	1
TAP	93	0	2
TAP	93	96	2
TAP	93	192	2
TAP	93	192	3
TAP	94	0	4
TAP	94	96	4
TAP	94	192	5
TAP	94	288	5
TAP	95	0	6
TAP	95	96	6
TAP	95	192	6
TAP	95	192	7
TAP	96	0	0
TAP	96	0	7
TAP	96	96	0
TAP	96	96	7
TAP	96	192	0
TAP	96	192	7
TAP	96	288	0
TAP	96	288	7
TAP	97	0	1
TAP	97	0	6
TAP	97	96	1
TAP	97	96	6
BRK	97	192	1
BRK	97	192	6
HLD	98	0	2	384
HLD	98	0	5	384
HLD	100	0	3	384
HLD	100	0	4	384
TTP	102	0	3	B	0	L1
TTP	102	0	4	B	0	L1
TTP	103	0	2	B	0	L1
TTP	103	0	5	B	0	L1
TTP	104	0	1	B	0	L1
TTP	104	0	6	B	0	L1
THO	105	0	0	384	C	0	L1

T_REC_TAP	176
T_REC_BRK	4
T_REC_XTP	16
T_REC_HLD	8
T_REC_XHO	0
T_REC_STR	4
T_REC_BST	0
T_REC_XST	0
T_REC_TTP	14
T_REC_THO	1
T_REC_SLD	4
T_REC_ALL	227
T_NUM_TAP	210
T_NUM_BRK	4
T_NUM_HLD	9
T_NUM_SLD	4
T_NUM_ALL	227
T_JUDGE_TAP	214
T_JUDGE_HLD	56
T_JUDGE_SLD	4
T_JUDGE_ALL	274
TTM_EACHPAIRS	40
TTM_SCR_TAP	105000
TTM_SCR_BRK	10400
TTM_SCR_HLD	9000
TTM_SCR_SLD	6000
TTM_SCR_ALL	130400
TTM_SCR_S	126100
TTM_SCR_SS	130000
TTM_RAT_ACV	10030

