VERSION	0.00.00	1.03.00
FES_MODE	0
BPM_DEF	165.000	165.000	165.000	165.000
MET_DEF	4	4
RESOLUTION	384
CLK_DEF	384
COMPATIBLE_CODE	MA2

BPM	0	0	165.000
MET	0	0	4	4

HLD	1	0	5	96
TTP	1	96	0	E	0	M1
HLD	1	144	5	96
TTP	1	240	1	E	0	M1
HLD	1	288	5	96
TTP	2	0	2	E	0	M1
HLD	2	48	5	96
TTP	2	144	3	E	0	M1
TAP	2	192	5
TTP	2	240	4	E	0	M1
HLD	2	288	5	96
HLD	3	0	2	96
TTP	3	96	0	E	0	M1
HLD	3	144	2	96
TTP	3	240	7	E	0	M1
HLD	3	288	2	96
TTP	4	0	0	C	0	M1
TAP	4	288	2
TAP	4	312	4
TAP	4	336	1
TAP	4	360	3
HLD	5	0	0	288
TTP	5	48	2	E	0	M1
TTP	5	72	2	B	0	M1
TTP	5	96	3	B	0	M1
TTP	5	120	4	B	0	M1
TTP	5	144	5	B	0	M1
TTP	5	168	6	E	0	M1
HLD	5	288	6	384
TTP	6	0	1	E	0	M1
TTP	6	16	1	B	0	M1
TTP	6	32	2	B	0	M1
TTP	6	48	3	B	0	M1
TAP	6	192	4
HLD	6	288	4	384
TTP	7	0	0	E	0	M1
TTP	7	16	0	B	0	M1
TTP	7	32	1	B	0	M1
TTP	7	48	2	B	0	M1
TAP	7	192	3
HLD	7	288	3	96
STR	8	0	4
SXL	8	0	4	96	120	7
SXR	8	0	4	96	120	1
STR	8	288	0
SI_	8	288	0	96	24	4
XTP	9	0	0
STR	9	0	4
SCR	9	0	4	96	192	3
TTP	9	12	0	C	1	M1
STR	9	288	7
SI_	9	288	7	96	24	3
STR	10	0	3
SCL	10	0	3	96	192	4
XTP	10	0	7
TTP	10	12	0	C	1	M1
STR	10	288	0
SI_	10	288	0	96	24	4
XTP	11	0	0
STR	11	0	4
SCR	11	0	4	96	192	3
TTP	11	12	0	C	1	M1
HLD	12	0	5	48
TTP	12	48	1	E	0	M1
TTP	12	60	1	B	0	M1
TTP	12	72	2	B	0	M1
TTP	12	84	3	E	0	M1
TAP	12	96	5
TAP	12	120	4
TAP	12	144	6
TAP	12	168	3
TAP	12	192	5
TAP	12	216	4
TAP	12	240	6
TAP	12	288	3
TAP	12	288	7
STR	13	0	2
SCL	13	0	2	96	144	5
XTP	13	0	7
TTP	13	12	7	B	0	M1
TTP	13	24	0	C	1	M1
TTP	13	36	3	B	0	M1
XTP	14	0	0
STR	14	0	5
SCR	14	0	5	96	144	2
TTP	14	12	0	B	0	M1
TTP	14	24	0	C	1	M1
TTP	14	36	4	B	0	M1
STR	15	0	2
SCL	15	0	2	96	144	5
XTP	15	0	7
TTP	15	12	7	B	0	M1
TTP	15	24	0	C	1	M1
TTP	15	36	3	B	0	M1
HLD	16	0	2	48
TAP	16	48	4
TAP	16	72	4
TAP	16	96	3
TAP	16	144	2
TAP	16	168	3
TAP	16	216	5
TAP	16	240	4
STR	16	288	0
SF_	16	288	0	96	24	4
TAP	16	288	6
STR	17	0	0
SXR	17	0	0	96	480	2
TTP	17	12	0	C	1	M1
TAP	19	0	4
HLD	19	48	4	144
HLD	19	192	5	192
HLD	20	0	6	192
HLD	20	192	7	192
TAP	21	0	0
HLD	21	48	0	144
XTP	21	144	1
XTP	21	168	2
XHO	21	192	3	192
HLD	22	0	4	192
HLD	22	192	3	192
TTP	23	0	1	E	0	M1
TTP	23	96	0	E	0	M1
TTP	23	192	7	E	0	M1
TTP	23	288	6	E	0	M1
TTP	24	0	5	E	0	M1
TTP	24	96	4	E	0	M1
TTP	24	192	3	E	0	M1
TTP	24	288	2	E	0	M1
TTP	25	0	1	E	0	M1
TAP	25	0	4
TTP	25	96	1	B	0	M1
TAP	25	96	5
TAP	25	144	4
TTP	25	192	1	E	0	M1
TAP	25	240	4
TTP	25	288	1	B	0	M1
TAP	25	288	5
TTP	26	0	1	E	0	M1
TAP	26	0	4
TAP	26	48	4
TTP	26	96	1	B	0	M1
TAP	26	96	5
TAP	26	144	4
TTP	26	192	1	E	0	M1
TAP	26	240	4
TTP	26	288	1	B	0	M1
TAP	26	288	5
TAP	27	0	3
TTP	27	0	7	E	0	M1
TAP	27	96	2
TTP	27	96	6	B	0	M1
TAP	27	144	3
TTP	27	192	7	E	0	M1
TAP	27	240	3
TAP	27	288	2
TTP	27	288	6	B	0	M1
TAP	28	0	3
TTP	28	0	7	E	0	M1
TAP	28	48	3
TAP	28	96	2
TTP	28	96	6	B	0	M1
TAP	28	144	3
TTP	28	192	7	E	0	M1
TAP	28	240	3
TAP	28	288	2
TTP	28	288	6	B	0	M1
TAP	29	0	0
TAP	29	0	7
TAP	29	48	0
TAP	29	48	7
TAP	29	144	1
TAP	29	168	0
TAP	29	192	1
TAP	29	240	3
TAP	29	264	2
TAP	29	288	3
TAP	29	312	2
TAP	29	336	3
TAP	30	0	1
TAP	30	0	7
TAP	30	48	0
TAP	30	48	6
TAP	30	144	6
TAP	30	168	7
TAP	30	192	6
TAP	30	240	4
TAP	30	264	5
TAP	30	288	4
TAP	30	312	5
TAP	30	336	4
TAP	30	360	5
HLD	31	0	4	96
TAP	31	96	6
TAP	31	120	4
TAP	31	144	5
TAP	31	168	3
TAP	31	192	4
TAP	31	216	2
TAP	31	240	3
TAP	31	264	1
STR	31	288	7
SI_	31	288	7	96	24	3
TAP	31	312	0
TAP	31	336	6
TAP	32	0	5
BRK	32	0	7
TTP	32	12	0	C	1	M1
XTP	32	288	2
XTP	32	288	5
STR	33	0	1
SI_	33	0	1	96	48	4
TTP	33	8	1	E	0	M1
TTP	33	16	0	B	0	M1
TTP	33	24	7	B	0	M1
TTP	33	32	7	E	0	M1
TAP	33	48	5
TAP	33	96	1
TAP	33	144	5
TAP	33	168	5
TAP	33	192	3
TAP	33	240	2
XTP	33	288	1
XTP	33	288	4
STR	34	0	6
SI_	34	0	6	96	48	3
TTP	34	8	7	E	0	M1
TTP	34	16	7	B	0	M1
TTP	34	24	0	B	0	M1
TTP	34	32	1	E	0	M1
TAP	34	48	2
TAP	34	96	6
TAP	34	144	2
TAP	34	168	2
TAP	34	192	4
TAP	34	240	5
XTP	34	288	1
XTP	34	288	5
STR	35	0	0
SI_	35	0	0	96	48	3
TTP	35	8	0	E	0	M1
TTP	35	16	7	B	0	M1
TTP	35	24	6	B	0	M1
TTP	35	32	6	E	0	M1
TAP	35	48	4
TAP	35	96	0
TAP	35	144	4
TAP	35	168	4
TAP	35	192	2
TAP	35	240	1
TAP	35	288	0
TAP	35	288	6
TAP	35	336	5
TAP	36	0	3
TAP	36	0	4
TAP	36	48	2
TAP	36	72	3
TAP	36	96	2
TAP	36	144	1
TAP	36	192	0
TAP	36	192	7
XTP	36	288	2
XTP	36	288	6
STR	37	0	5
SI_	37	0	5	96	48	0
TTP	37	8	5	E	0	M1
TTP	37	16	4	B	0	M1
TTP	37	24	3	B	0	M1
TTP	37	32	3	E	0	M1
TAP	37	48	1
TAP	37	96	5
TAP	37	144	1
TAP	37	168	1
TAP	37	192	7
TAP	37	240	6
XTP	37	288	0
XTP	37	288	5
STR	38	0	2
SI_	38	0	2	96	48	7
TTP	38	8	3	E	0	M1
TTP	38	16	3	B	0	M1
TTP	38	24	4	B	0	M1
TTP	38	32	5	E	0	M1
TAP	38	48	6
TAP	38	96	2
TAP	38	144	6
TAP	38	168	6
TAP	38	192	0
TAP	38	240	1
XTP	38	288	2
XTP	38	288	5
STR	39	0	7
SI_	39	0	7	96	48	4
TTP	39	8	0	E	0	M1
TTP	39	16	0	B	0	M1
TTP	39	24	1	B	0	M1
TTP	39	32	2	E	0	M1
TAP	39	48	3
TAP	39	96	7
TAP	39	144	3
TAP	39	168	3
TAP	39	192	5
TAP	39	240	6
TAP	39	288	7
TAP	39	336	7
TAP	40	0	0
TAP	40	0	6
TAP	40	48	1
TAP	40	48	5
TAP	40	96	2
TAP	40	96	4
TAP	40	144	1
TAP	40	144	7
TAP	40	192	2
TAP	40	192	6
TAP	40	240	3
TAP	40	240	5
XTP	40	288	2
XTP	40	288	6
STR	41	0	1
SI_	41	0	1	96	48	4
TTP	41	8	1	E	0	M1
TTP	41	16	0	B	0	M1
TTP	41	24	7	B	0	M1
TTP	41	32	7	E	0	M1
TAP	41	48	5
TAP	41	96	1
TAP	41	144	6
TAP	41	168	6
TAP	41	192	0
TAP	41	240	2
XTP	41	288	3
XTP	41	288	4
TAP	41	336	5
STR	42	0	6
SI_	42	0	6	96	48	3
TTP	42	8	7	E	0	M1
TTP	42	16	7	B	0	M1
TTP	42	24	0	B	0	M1
TTP	42	32	1	E	0	M1
TAP	42	48	2
TAP	42	96	6
TAP	42	144	1
TAP	42	168	1
TAP	42	192	7
TAP	42	240	6
XTP	42	288	2
XTP	42	288	5
TAP	42	336	1
STR	43	0	0
SI_	43	0	0	96	48	3
TTP	43	8	0	E	0	M1
TTP	43	16	7	B	0	M1
TTP	43	24	6	B	0	M1
TTP	43	32	6	E	0	M1
TAP	43	48	4
TAP	43	96	0
TAP	43	144	4
TAP	43	168	4
TAP	43	192	2
TAP	43	240	1
TAP	43	288	0
TAP	43	288	6
TAP	43	336	5
TAP	44	0	3
TAP	44	0	4
TAP	44	48	2
TAP	44	72	3
TAP	44	96	1
TAP	44	144	0
TAP	44	144	5
TAP	44	192	0
TAP	44	192	5
XTP	44	288	1
XTP	44	288	7
STR	45	0	6
SI_	45	0	6	96	48	1
TTP	45	8	6	E	0	M1
TTP	45	16	5	B	0	M1
TTP	45	24	4	B	0	M1
TTP	45	32	4	E	0	M1
TAP	45	48	2
TAP	45	96	6
TAP	45	144	3
TAP	45	168	3
TAP	45	192	6
TTP	45	200	6	E	0	M1
TTP	45	208	5	B	0	M1
TTP	45	216	4	B	0	M1
TTP	45	224	4	E	0	M1
TAP	45	240	1
XTP	45	288	0
XTP	45	288	6
STR	46	0	1
SI_	46	0	1	96	48	6
TTP	46	8	2	E	0	M1
TTP	46	16	2	B	0	M1
TTP	46	24	3	B	0	M1
TTP	46	32	4	E	0	M1
TAP	46	48	5
TAP	46	96	1
TAP	46	144	4
TAP	46	168	4
TAP	46	192	1
TTP	46	200	2	E	0	M1
TTP	46	208	2	B	0	M1
TTP	46	216	3	B	0	M1
TTP	46	224	4	E	0	M1
TAP	46	240	6
XTP	46	288	1
XTP	46	288	7
BST	47	0	0
SCR	47	0	0	96	48	4
BST	47	48	4
SCR	47	48	4	96	48	0
TTP	47	192	1	E	0	M1
TTP	47	204	2	E	0	M1
TTP	47	216	3	E	0	M1
TTP	47	228	4	E	0	M1
TTP	47	240	5	E	0	M1
TTP	47	252	6	E	0	M1
TTP	47	264	7	E	0	M1
TTP	47	276	0	E	0	M1
TTP	47	288	0	C	1	M1
TAP	48	0	0
TAP	48	24	7
TAP	48	48	0
TAP	48	72	7
TAP	48	96	1
TAP	48	96	6
TAP	48	144	3
TAP	48	168	4
TAP	48	192	1
TAP	48	216	6
TAP	48	240	2
TAP	48	264	5
BRK	48	288	0
STR	49	0	1
SCR	49	0	1	96	192	4
STR	49	192	4
SXR	49	192	4	96	288	1
TTP	50	0	6	E	0	M1
TTP	50	96	7	E	0	M1
TTP	50	192	0	E	0	M1
STR	51	0	5
SCR	51	0	5	96	192	0
STR	51	192	0
SXR	51	192	0	96	288	5
TTP	52	0	2	E	0	M1
TTP	52	96	3	E	0	M1
TTP	52	192	4	E	0	M1
STR	53	0	2
SCR	53	0	2	96	192	5
STR	53	192	5
SXR	53	192	5	96	288	2
TTP	54	0	7	E	0	M1
TTP	54	96	0	E	0	M1
TTP	54	192	1	E	0	M1
TAP	54	288	0
TAP	54	336	7
TAP	55	0	1
TAP	55	0	6
TAP	55	144	3
TAP	55	168	4
TAP	55	192	3
TAP	55	240	2
TAP	55	288	0
TAP	55	288	1
TAP	56	0	6
TAP	56	0	7
TAP	56	96	4
TAP	56	96	5
TAP	56	192	2
TAP	56	192	3
XTP	56	288	0
XTP	56	288	7
TAP	57	0	3
HLD	57	0	4	96
BRK	57	48	1
TAP	57	96	3
TAP	57	120	4
TAP	57	144	2
TAP	57	168	4
TAP	57	192	3
TAP	57	216	4
TAP	57	240	1
TAP	57	264	4
TAP	57	288	3
TAP	57	312	4
TAP	57	336	0
TAP	57	360	4
TAP	58	0	3
TAP	58	24	4
TTP	58	48	0	E	0	M1
TAP	58	72	4
TAP	58	96	3
TAP	58	120	4
TTP	58	144	0	B	0	M1
TAP	58	168	4
TAP	58	192	3
TAP	58	216	4
TTP	58	240	1	B	0	M1
TAP	58	288	2
TAP	58	288	5
HLD	59	0	3	96
TAP	59	0	4
BRK	59	48	6
TAP	59	96	4
TAP	59	120	3
TAP	59	144	5
TAP	59	168	3
TAP	59	192	4
TAP	59	216	3
TAP	59	240	6
TAP	59	264	3
TAP	59	288	4
TAP	59	312	3
TAP	59	336	7
TAP	59	360	3
TAP	60	0	4
TAP	60	24	3
TTP	60	48	0	E	0	M1
TAP	60	72	3
TAP	60	96	4
TAP	60	120	3
TTP	60	144	7	B	0	M1
TAP	60	168	3
TAP	60	192	4
TAP	60	216	3
TTP	60	240	6	B	0	M1
TAP	60	288	2
TAP	60	288	5
HLD	61	0	2	96
TTP	61	48	2	E	0	M1
HLD	61	96	4	96
TTP	61	144	1	E	0	M1
HLD	61	192	3	96
TTP	61	240	7	E	0	M1
HLD	61	288	5	96
TTP	61	336	6	E	0	M1
HLD	62	0	7	96
TTP	62	48	3	E	0	M1
HLD	62	96	5	96
TTP	62	144	1	E	0	M1
HLD	62	192	2	96
TTP	62	240	7	E	0	M1
HLD	62	288	0	96
TTP	62	336	5	E	0	M1
HLD	63	0	3	96
TTP	63	48	2	E	0	M1
HLD	63	96	4	96
TTP	63	144	6	E	0	M1
HLD	63	192	0	96
TTP	63	240	1	E	0	M1
STR	63	288	6
SUL	63	288	6	96	96	1
TAP	64	192	7
TAP	64	216	0
TAP	64	240	6
TAP	64	264	1
TAP	64	288	4
TAP	64	312	3
TAP	64	336	5
TAP	64	360	2
BST	65	0	7
SCL	65	0	7	96	576	1
STR	67	0	0
SCR	67	0	0	96	576	6
STR	69	0	7
SXR	69	0	7	96	240	4
TAP	69	48	7
TAP	69	96	0
TAP	69	144	0
TAP	69	192	1
TAP	69	240	1
TAP	69	288	2
TAP	69	336	2
STR	70	0	3
SXR	70	0	3	96	240	0
TAP	70	48	3
TAP	70	96	4
TAP	70	144	4
TAP	70	192	5
TAP	70	240	5
TAP	70	288	6
TAP	70	336	6
TAP	71	0	7
TAP	71	24	0
TAP	71	48	6
TAP	71	72	1
TAP	71	96	5
TAP	71	120	2
TAP	71	144	4
TAP	71	168	3
TAP	71	192	5
TAP	71	216	2
TAP	71	240	6
TAP	71	264	1
TAP	71	288	7
TAP	71	312	2
TAP	71	336	5
TAP	71	360	3
TAP	72	0	4
TAP	72	48	2
TAP	72	48	5
TTP	72	56	2	E	0	M1
TTP	72	64	1	B	0	M1
TTP	72	72	0	B	0	M1
TTP	72	80	0	E	0	M1
TAP	72	96	4
TAP	72	144	3
TAP	72	192	2
TAP	72	192	5
TTP	72	200	6	E	0	M1
TTP	72	208	6	B	0	M1
TTP	72	216	7	B	0	M1
TTP	72	224	0	E	0	M1
TAP	72	240	3
TAP	72	288	4
XTP	73	0	3
XTP	73	0	4
TTP	73	8	4	E	0	M1
TTP	73	16	3	B	0	M1
TTP	73	24	0	C	1	M1
TTP	73	32	0	B	0	M1
TTP	73	32	0	E	0	M1
TTP	73	32	1	B	0	M1
TTP	73	32	1	E	0	M1
TTP	73	32	2	E	0	M1
TTP	73	32	6	B	0	M1
TTP	73	32	6	E	0	M1
TTP	73	32	7	B	0	M1
TTP	73	32	7	E	0	M1
XTP	75	0	0
XTP	75	0	7
XTP	75	8	1
XTP	75	8	6
XTP	75	16	2
XTP	75	16	5
XST	75	24	3
SCR	75	24	3	96	456	3
XST	75	24	4
SCL	75	24	4	96	456	4
STR	77	0	1
SV_	77	0	1	96	48	3
STR	77	0	5
SV_	77	0	5	96	48	3
STR	77	96	1
SCL	77	96	1	96	96	5
STR	77	96	5
SCR	77	96	5	96	96	1
STR	78	0	2
SV_	78	0	2	96	48	4
STR	78	0	6
SV_	78	0	6	96	48	4
STR	78	96	2
SCL	78	96	2	96	96	6
STR	78	96	6
SCR	78	96	6	96	96	2
TAP	79	0	3
TAP	79	48	3
TAP	79	96	2
TAP	79	96	4
TAP	79	144	1
TAP	79	168	3
TAP	79	192	0
TAP	79	240	0
TAP	79	288	1
TAP	79	288	7
TAP	79	336	2
TAP	79	360	7
TAP	80	0	3
TAP	80	24	6
TAP	80	48	3
TAP	80	72	6
TAP	80	96	2
TAP	80	120	5
TAP	80	144	2
TAP	80	168	5
TAP	80	192	1
TAP	80	216	4
TAP	80	240	1
TAP	80	264	4
BRK	80	288	0
STR	81	0	0
SI_	81	0	0	96	48	3
TTP	81	8	0	E	0	M1
TTP	81	16	7	B	0	M1
TTP	81	24	6	B	0	M1
TTP	81	32	6	E	0	M1
TAP	81	48	4
TAP	81	96	0
TAP	81	144	4
STR	81	192	1
SI_	81	192	1	96	48	4
TTP	81	200	1	E	0	M1
TTP	81	208	0	B	0	M1
TTP	81	216	7	B	0	M1
TTP	81	224	7	E	0	M1
TAP	81	240	5
TAP	81	288	1
TAP	81	336	5
STR	82	0	2
SI_	82	0	2	96	48	5
TTP	82	8	2	E	0	M1
TTP	82	16	1	B	0	M1
TTP	82	24	0	B	0	M1
TTP	82	32	0	E	0	M1
TAP	82	48	6
TAP	82	96	2
TAP	82	144	6
TAP	82	192	7
TAP	82	240	0
TAP	82	288	1
BRK	82	288	5
STR	83	0	7
SI_	83	0	7	96	48	4
TTP	83	8	0	E	0	M1
TTP	83	16	0	B	0	M1
TTP	83	24	1	B	0	M1
TTP	83	32	2	E	0	M1
TAP	83	48	3
TAP	83	96	7
TAP	83	144	3
STR	83	192	6
SI_	83	192	6	96	48	3
TTP	83	200	7	E	0	M1
TTP	83	208	7	B	0	M1
TTP	83	216	0	B	0	M1
TTP	83	224	1	E	0	M1
TAP	83	240	2
TAP	83	288	6
TAP	83	336	2
STR	84	0	5
SI_	84	0	5	96	48	2
TTP	84	8	6	E	0	M1
TTP	84	16	6	B	0	M1
TTP	84	24	7	B	0	M1
TTP	84	32	0	E	0	M1
TAP	84	48	1
TAP	84	96	5
TAP	84	144	1
TAP	84	192	0
TAP	84	240	7
BRK	84	288	2
TAP	84	288	6
STR	85	0	0
SI_	85	0	0	96	48	3
TTP	85	8	0	E	0	M1
TTP	85	16	7	B	0	M1
TTP	85	24	6	B	0	M1
TTP	85	32	6	E	0	M1
TAP	85	48	4
TAP	85	96	0
TAP	85	144	4
STR	85	192	1
SI_	85	192	1	96	48	4
TTP	85	200	1	E	0	M1
TTP	85	208	0	B	0	M1
TTP	85	216	7	B	0	M1
TTP	85	224	7	E	0	M1
TAP	85	240	5
TAP	85	288	1
TAP	85	336	5
STR	86	0	7
SI_	86	0	7	96	48	4
TTP	86	8	0	E	0	M1
TTP	86	16	0	B	0	M1
TTP	86	24	1	B	0	M1
TTP	86	32	2	E	0	M1
TAP	86	48	3
TAP	86	96	7
TAP	86	144	3
XTP	86	192	2
STR	86	192	6
SI_	86	192	6	96	48	3
TTP	86	200	7	E	0	M1
TTP	86	208	7	B	0	M1
TTP	86	216	0	B	0	M1
TTP	86	224	1	E	0	M1
XTP	86	240	2
XTP	86	288	2
TAP	86	288	6
TTP	86	296	2	E	0	M1
TTP	86	304	1	B	0	M1
TTP	86	312	0	B	0	M1
TTP	86	320	0	E	0	M1
XTP	87	0	1
XTP	87	0	5
XTP	87	48	1
XTP	87	48	5
TAP	87	144	2
TAP	87	168	3
TAP	87	192	2
TAP	87	240	1
TAP	87	288	0
TAP	87	288	4
TAP	88	0	4
TAP	88	0	6
TAP	88	48	5
TAP	88	96	1
TAP	88	96	3
TAP	88	144	2
TAP	88	192	2
TAP	88	216	4
TAP	88	240	3
TAP	88	264	5
BRK	88	288	1
STR	89	0	0
SI_	89	0	0	96	48	3
TAP	89	0	4
TTP	89	8	0	E	0	M1
TTP	89	16	7	B	0	M1
TTP	89	24	6	B	0	M1
TTP	89	32	6	E	0	M1
TAP	89	48	4
TAP	89	96	0
TAP	89	96	4
TAP	89	144	4
STR	89	192	1
SI_	89	192	1	96	48	4
TAP	89	192	5
TTP	89	200	1	E	0	M1
TTP	89	208	0	B	0	M1
TTP	89	216	7	B	0	M1
TTP	89	224	7	E	0	M1
TAP	89	240	5
TAP	89	288	1
TAP	89	288	5
TAP	89	336	5
TAP	90	0	3
STR	90	0	7
SI_	90	0	7	96	48	4
TTP	90	8	0	E	0	M1
TTP	90	16	0	B	0	M1
TTP	90	24	1	B	0	M1
TTP	90	32	2	E	0	M1
TAP	90	48	3
TAP	90	96	3
TAP	90	96	7
TAP	90	144	3
TAP	90	192	2
STR	90	192	6
SI_	90	192	6	96	48	3
TTP	90	200	7	E	0	M1
TTP	90	208	7	B	0	M1
TTP	90	216	0	B	0	M1
TTP	90	224	1	E	0	M1
TAP	90	240	2
TAP	90	288	2
TAP	90	288	6
TAP	90	336	2
STR	91	0	0
SI_	91	0	0	96	48	3
TAP	91	0	4
TTP	91	8	0	E	0	M1
TTP	91	16	7	B	0	M1
TTP	91	24	6	B	0	M1
TTP	91	32	6	E	0	M1
TAP	91	48	4
TAP	91	96	0
TAP	91	96	4
TAP	91	144	4
STR	91	192	2
SI_	91	192	2	96	48	5
TAP	91	192	6
TTP	91	200	2	E	0	M1
TTP	91	208	1	B	0	M1
TTP	91	216	0	B	0	M1
TTP	91	224	0	E	0	M1
TAP	91	240	6
TAP	91	288	2
TAP	91	288	6
TAP	91	336	6
TAP	92	0	1
STR	92	0	5
SI_	92	0	5	96	48	2
TTP	92	8	6	E	0	M1
TTP	92	16	6	B	0	M1
TTP	92	24	7	B	0	M1
TTP	92	32	0	E	0	M1
TAP	92	48	1
TAP	92	96	1
TAP	92	96	5
TAP	92	144	1
STR	92	192	4
SCL	92	192	4	96	144	4
SCR	92	192	4	96	144	4
TTP	92	204	4	B	0	M1
TTP	92	216	0	C	0	M1
TTP	92	228	0	B	0	M1

T_REC_TAP	419
T_REC_BRK	8
T_REC_XTP	49
T_REC_HLD	35
T_REC_XHO	1
T_REC_STR	60
T_REC_BST	3
T_REC_XST	2
T_REC_TTP	246
T_REC_THO	0
T_REC_SLD	67
T_REC_ALL	890
T_NUM_TAP	776
T_NUM_BRK	11
T_NUM_HLD	36
T_NUM_SLD	67
T_NUM_ALL	890
T_JUDGE_TAP	787
T_JUDGE_HLD	100
T_JUDGE_SLD	67
T_JUDGE_ALL	954
TTM_EACHPAIRS	85
TTM_SCR_TAP	388000
TTM_SCR_BRK	28600
TTM_SCR_HLD	36000
TTM_SCR_SLD	100500
TTM_SCR_ALL	553100
TTM_SCR_S	535450
TTM_SCR_SS	552000
TTM_RAT_ACV	10019

