VERSION	0.00.00	1.03.00
FES_MODE	0
BPM_DEF	165.000	165.000	165.000	165.000
MET_DEF	4	4
RESOLUTION	384
CLK_DEF	384
COMPATIBLE_CODE	MA2

BPM	0	0	165.000
MET	0	0	4	4

HLD	1	0	5	144
HLD	1	144	3	144
HLD	1	288	4	144
HLD	2	48	2	144
TAP	2	192	3
TAP	2	288	2
TAP	2	288	4
HLD	3	0	5	144
HLD	3	144	3	144
TAP	3	288	4
HLD	4	0	1	240
HLD	4	0	5	240
TAP	4	288	1
TAP	4	288	5
HLD	5	0	2	144
TAP	5	0	4
HLD	5	144	3	144
TAP	5	288	2
TAP	6	0	3
HLD	6	0	5	144
HLD	6	144	4	144
TAP	6	288	5
HLD	7	0	4	144
TAP	7	0	6
HLD	7	144	5	144
TAP	7	288	4
HLD	8	0	3	288
BRK	8	0	6
TAP	8	240	7
STR	8	288	7
SCR	8	288	7	96	192	4
XTP	9	0	4
STR	9	288	1
SCL	9	288	1	96	192	4
XTP	10	0	4
XTP	10	288	3
XTP	10	288	7
STR	11	0	6
SI_	11	0	6	96	96	2
STR	11	192	0
SI_	11	192	0	96	96	4
BRK	12	0	7
TAP	12	96	6
TAP	12	144	6
TAP	12	240	4
TAP	12	240	5
TAP	12	288	4
TAP	12	288	5
TAP	13	0	2
TAP	13	48	2
TAP	13	96	3
HLD	13	144	1	96
TAP	13	240	4
TAP	13	288	1
TAP	13	288	4
TAP	14	0	5
TAP	14	48	5
TAP	14	96	4
HLD	14	144	6	96
TAP	14	240	3
TAP	14	288	3
TAP	14	288	6
TAP	15	0	7
TAP	15	48	7
TAP	15	96	0
TAP	15	144	0
TAP	15	192	6
TAP	15	240	6
TAP	15	288	4
TAP	15	336	4
XTP	16	0	5
TAP	16	96	3
TAP	16	96	4
TAP	16	144	3
TAP	16	144	4
XTP	16	240	1
XTP	16	240	5
XTP	16	288	1
XTP	16	288	5
TAP	17	0	2
TAP	17	0	4
STR	17	48	2
SUL	17	48	2	96	240	5
TAP	17	48	4
TAP	18	192	4
TAP	18	288	4
TAP	19	0	3
TAP	19	0	5
TAP	19	48	3
HLD	19	48	5	336
TAP	19	192	4
STR	20	0	4
SCL	20	0	4	96	192	1
TAP	21	0	1
TAP	21	0	3
TAP	21	48	1
HLD	21	48	3	144
HLD	21	192	2	192
HLD	22	0	3	192
HLD	22	192	4	192
TAP	23	0	5
STR	23	48	4
SI_	23	48	4	96	240	0
TAP	23	48	5
XHO	24	0	7	384
TAP	24	192	0
STR	24	288	0
SCR	24	288	0	96	192	3
TAP	25	192	5
STR	25	288	5
SCR	25	288	5	96	192	0
TAP	26	192	2
STR	26	288	2
SCR	26	288	2	96	192	5
TAP	27	192	7
STR	27	288	7
SI_	27	288	7	96	144	3
XTP	28	192	2
XTP	28	192	4
XTP	29	0	1
XTP	29	0	5
XST	29	48	1
SI_	29	48	1	96	96	4
XTP	29	48	5
TAP	29	192	7
TAP	29	288	7
XTP	30	0	2
XTP	30	0	6
XTP	30	48	2
STR	30	48	6
SI_	30	48	6	96	96	3
TAP	30	192	0
STR	30	288	0
SCR	30	288	0	96	384	7
TTP	32	0	0	C	1	M1
XTP	32	288	0
XTP	32	288	7
TAP	33	0	1
TAP	33	48	1
TAP	33	96	3
TAP	33	144	3
TAP	33	192	2
TAP	33	240	4
TAP	33	288	0
TAP	33	336	0
TAP	34	0	6
TAP	34	48	6
TAP	34	96	4
TAP	34	144	4
TAP	34	192	5
TAP	34	240	3
TAP	34	240	6
TAP	34	288	3
TAP	34	288	6
TAP	35	0	1
TAP	35	0	4
TAP	35	48	1
TAP	35	48	4
TAP	35	96	0
TAP	35	144	0
TAP	35	192	6
TAP	35	240	5
TAP	35	288	2
TAP	35	336	2
TAP	36	0	1
TAP	36	0	4
TAP	36	48	2
TAP	36	72	3
TAP	36	96	2
TAP	36	144	1
TAP	36	144	4
TAP	36	192	1
TAP	36	192	4
TAP	36	288	3
TAP	36	288	5
TAP	37	0	2
TAP	37	48	2
TAP	37	96	3
TAP	37	144	1
TAP	37	192	7
TAP	37	240	6
TAP	37	288	3
TAP	37	336	3
TAP	38	0	5
TAP	38	48	5
TAP	38	96	4
TAP	38	144	6
TAP	38	192	0
TAP	38	240	1
TAP	38	288	3
TAP	38	336	3
TAP	39	0	1
TAP	39	0	4
TAP	39	96	2
TAP	39	96	5
TAP	39	144	4
TAP	39	168	3
TAP	39	192	4
TAP	39	240	5
STR	39	288	5
SCR	39	288	5	96	192	3
XTP	40	0	4
TAP	40	192	0
TAP	40	240	0
TAP	40	288	0
TAP	40	288	4
TAP	41	0	1
TAP	41	48	1
TAP	41	96	3
TAP	41	144	2
TAP	41	192	4
TAP	41	240	5
TAP	41	288	0
TAP	41	336	1
TAP	42	0	6
TAP	42	48	6
TAP	42	96	4
TAP	42	144	5
TAP	42	192	3
TAP	42	240	2
TAP	42	240	6
TAP	42	288	2
TAP	42	288	6
TAP	43	0	1
TAP	43	48	1
TAP	43	96	0
TAP	43	144	2
TAP	43	192	3
TAP	43	192	6
TAP	43	240	3
TAP	43	240	6
TAP	43	288	7
TAP	43	336	7
TAP	44	0	2
TAP	44	0	7
TAP	44	48	1
TAP	44	72	0
TAP	44	96	1
TAP	44	144	2
TAP	44	144	7
TAP	44	192	2
TAP	44	192	7
TAP	44	288	0
TAP	44	288	6
TAP	45	0	5
TAP	45	48	5
TAP	45	96	2
TAP	45	144	1
TAP	45	192	7
TAP	45	240	6
TAP	45	288	0
TAP	45	336	0
TAP	46	0	4
TAP	46	48	4
TAP	46	96	5
TAP	46	144	6
TAP	46	192	0
TAP	46	240	1
TAP	46	288	7
TAP	46	336	7
XTP	47	0	2
XTP	47	0	6
XTP	47	48	2
XTP	47	48	6
TAP	47	144	1
TAP	47	144	5
STR	47	192	1
SI_	47	192	1	96	48	4
STR	47	192	5
SI_	47	192	5	96	48	0
XTP	48	0	3
BST	48	0	7
SSR	48	0	7	96	192	3
HLD	49	0	2	384
HLD	49	192	3	192
TAP	50	96	2
TAP	50	96	3
TTP	50	192	2	E	0	M1
TTP	50	192	4	E	0	M1
HLD	51	0	5	384
HLD	51	192	4	192
TAP	52	96	4
TAP	52	96	5
TTP	52	192	4	E	0	M1
TTP	52	192	6	E	0	M1
HLD	53	0	1	96
HLD	53	0	3	96
HLD	53	192	1	96
HLD	53	192	3	96
TAP	54	0	2
TAP	54	96	2
TTP	54	192	1	B	0	M1
TTP	54	192	3	B	0	M1
HLD	55	0	4	96
HLD	55	0	6	96
HLD	55	192	4	96
HLD	55	192	6	96
TAP	56	0	7
TAP	56	96	7
TAP	56	192	0
BRK	56	288	1
BRK	56	288	4
TAP	57	0	2
TAP	57	0	5
TAP	57	48	2
TAP	57	48	5
TAP	57	96	3
TAP	57	120	4
TAP	57	144	3
TAP	57	192	5
TAP	57	216	4
TAP	57	240	5
TAP	57	288	3
TAP	57	288	6
TAP	57	336	3
TAP	57	336	6
TAP	58	0	2
TAP	58	0	7
TAP	58	48	2
TAP	58	48	7
TAP	58	96	1
TAP	58	120	0
TAP	58	144	1
TAP	58	192	6
TAP	58	216	7
TAP	58	240	6
TAP	58	288	0
TAP	58	288	5
TAP	59	0	1
TAP	59	0	6
TAP	59	48	1
TAP	59	48	6
TAP	59	96	0
TAP	59	120	7
TAP	59	144	0
TAP	59	192	1
TAP	59	192	6
TAP	59	240	1
TAP	59	240	6
TAP	59	288	0
TAP	59	288	5
TAP	59	336	0
TAP	59	336	5
TAP	60	0	6
TAP	60	24	7
TAP	60	48	6
TAP	60	96	1
TAP	60	120	0
TAP	60	144	1
TAP	60	192	2
TAP	60	192	3
TAP	60	240	1
TAP	60	240	4
BRK	60	288	0
BRK	60	288	5
TAP	61	0	4
TAP	61	0	5
TAP	61	48	4
TAP	61	48	5
TAP	61	96	6
TAP	61	120	7
TAP	61	144	6
TAP	61	192	0
TAP	61	192	5
TAP	61	240	1
TAP	61	240	4
TAP	61	288	2
TAP	61	312	3
TAP	61	336	2
TAP	62	0	3
TAP	62	0	4
TAP	62	48	3
TAP	62	48	4
TAP	62	96	5
TAP	62	120	4
TAP	62	144	5
TAP	62	192	3
TAP	62	192	6
TAP	62	240	3
TAP	62	240	6
TAP	62	288	2
TAP	62	288	7
TAP	63	0	1
TAP	63	24	0
TAP	63	48	1
TAP	63	96	6
TAP	63	120	7
TAP	63	144	6
TAP	63	192	1
TAP	63	216	2
TAP	63	240	1
STR	63	288	0
SUL	63	288	0	96	288	7
TAP	63	288	3
TTP	64	0	0	C	1	M1
XTP	65	0	0
XTP	65	0	6
XTP	65	48	0
XHO	65	48	6	576
TAP	65	240	7
TAP	65	336	7
TAP	66	48	5
TAP	66	144	5
TAP	66	240	4
TAP	66	336	3
XTP	67	0	2
XTP	67	0	4
XHO	67	48	2	480
XTP	67	48	4
TAP	67	240	3
TAP	67	336	3
TAP	68	48	1
TAP	68	144	0
TAP	68	240	0
TAP	68	240	1
STR	68	288	0
SXR	68	288	0	96	288	4
HLD	68	288	1	96
STR	69	288	2
SXR	69	288	2	96	288	6
STR	70	288	4
SXL	70	288	4	96	288	0
TAP	71	288	1
HLD	72	0	1	96
XHO	72	0	7	96
HLD	72	192	2	96
HLD	72	192	6	96
HLD	73	0	3	576
HLD	74	0	4	192
TAP	74	288	0
TAP	74	288	7
BRK	75	0	1
BST	75	0	6
SCR	75	0	6	96	192	1
STR	75	192	2
SCR	75	192	2	96	192	5
STR	76	0	6
SCR	76	0	6	96	192	1
TAP	76	192	3
TAP	76	288	3
HLD	77	0	2	384
TTP	77	192	3	E	0	M1
TTP	77	288	2	E	0	M1
TTP	78	0	1	E	0	M1
TTP	78	96	0	E	0	M1
TTP	78	192	1	E	0	M1
TTP	78	192	7	E	0	M1
TTP	78	288	2	E	0	M1
TTP	78	288	6	E	0	M1
THO	79	0	0	384	C	1	M1
BRK	80	0	7
TAP	80	192	0
TAP	80	192	6
TAP	80	240	0
TAP	80	240	6
TAP	80	288	0
TAP	80	288	6
STR	81	0	1
SI_	81	0	1	96	48	3
TAP	81	48	1
STR	81	96	4
SI_	81	96	4	96	48	0
TAP	81	144	4
STR	81	192	1
SI_	81	192	1	96	48	5
TAP	81	240	1
TAP	81	288	6
TAP	81	336	6
TAP	82	0	6
TAP	82	0	7
TAP	82	48	5
TAP	82	72	4
TAP	82	96	5
TAP	82	144	2
TAP	82	168	3
TAP	82	192	2
TAP	82	240	1
TAP	82	240	4
TAP	82	288	1
TAP	82	288	4
STR	83	0	6
SI_	83	0	6	96	48	4
TAP	83	48	6
STR	83	96	3
SI_	83	96	3	96	48	7
TAP	83	144	3
STR	83	192	6
SI_	83	192	6	96	48	2
TAP	83	240	6
TAP	83	288	1
TAP	83	336	1
TAP	84	0	3
TAP	84	48	3
TAP	84	96	2
TAP	84	144	1
STR	84	192	0
SF_	84	192	0	96	48	4
XTP	85	0	2
XTP	85	0	6
STR	85	96	5
SV_	85	96	5	96	48	0
TAP	85	144	5
STR	85	192	1
SCR	85	192	1	96	48	4
TAP	85	240	1
XTP	85	288	7
XTP	85	336	7
STR	86	0	6
SCL	86	0	6	96	48	3
TAP	86	48	6
STR	86	96	2
SV_	86	96	2	96	48	7
TAP	86	144	2
STR	86	192	5
SCL	86	192	5	96	48	2
TAP	86	240	5
XTP	86	288	0
XTP	86	336	0
XTP	87	0	1
XTP	87	0	7
XTP	87	48	1
XTP	87	48	7
TAP	87	144	2
TAP	87	144	6
STR	87	192	2
SI_	87	192	2	96	48	7
STR	87	192	6
SI_	87	192	6	96	48	3
BST	88	0	0
SLR	88	0	0	96	192	5
BST	88	0	4
SLR	88	0	4	96	192	1
XTP	89	0	3
XTP	89	0	7
HLD	89	96	4	48
HLD	89	96	6	48
HLD	89	192	3	48
HLD	89	192	4	48
HLD	89	288	1	48
HLD	89	288	3	48
HLD	90	0	0	48
HLD	90	0	7	48
HLD	90	96	4	48
HLD	90	96	6	48
HLD	90	192	2	48
HLD	90	192	3	48
TAP	90	288	1
TAP	90	288	4
TAP	90	336	2
TAP	90	336	5
HLD	91	0	3	48
HLD	91	0	6	48
HLD	91	96	0	48
HLD	91	96	5	48
HLD	91	192	2	48
HLD	91	192	7	48
HLD	91	288	3	48
HLD	91	288	5	48
HLD	92	0	2	48
HLD	92	0	4	48
HLD	92	96	3	48
HLD	92	96	6	48
STR	92	192	1
SUR	92	192	1	96	48	5
TAP	92	192	5
BRK	92	288	7
BRK	92	336	7

T_REC_TAP	344
T_REC_BRK	10
T_REC_XTP	43
T_REC_HLD	65
T_REC_XHO	4
T_REC_STR	37
T_REC_BST	4
T_REC_XST	1
T_REC_TTP	16
T_REC_THO	1
T_REC_SLD	42
T_REC_ALL	567
T_NUM_TAP	441
T_NUM_BRK	14
T_NUM_HLD	70
T_NUM_SLD	42
T_NUM_ALL	567
T_JUDGE_TAP	455
T_JUDGE_HLD	214
T_JUDGE_SLD	42
T_JUDGE_ALL	711
TTM_EACHPAIRS	124
TTM_SCR_TAP	220500
TTM_SCR_BRK	36400
TTM_SCR_HLD	70000
TTM_SCR_SLD	63000
TTM_SCR_ALL	389900
TTM_SCR_S	376850
TTM_SCR_SS	388500
TTM_RAT_ACV	10036

