VERSION	0.00.00	1.03.00
FES_MODE	0
BPM_DEF	165.000	165.000	165.000	165.000
MET_DEF	4	4
RESOLUTION	384
CLK_DEF	384
COMPATIBLE_CODE	MA2

BPM	0	0	165.000
MET	0	0	4	4

STR	1	0	1
SI_	1	0	1	96	192	4
TAP	2	0	5
TAP	2	96	5
TAP	2	192	4
TAP	2	192	5
STR	3	0	5
SI_	3	0	5	96	192	0
TAP	4	0	1
TAP	4	96	1
TAP	4	192	0
TAP	4	192	7
STR	5	0	1
SI_	5	0	1	96	192	4
TAP	6	0	5
TAP	6	96	5
TAP	6	192	4
TAP	6	192	5
STR	7	0	6
SI_	7	0	6	96	192	3
TAP	8	0	2
TAP	8	96	3
TAP	8	96	4
BRK	8	192	2
BRK	8	192	5
STR	9	0	6
SUL	9	0	6	96	192	2
STR	10	0	1
SUR	10	0	1	96	192	5
STR	11	0	6
SCL	11	0	6	96	192	3
TAP	12	0	2
TAP	12	96	2
TAP	12	192	2
TAP	12	192	3
STR	13	0	4
SCR	13	0	4	96	192	7
STR	14	0	0
SCR	14	0	0	96	192	3
STR	15	0	4
SCR	15	0	4	96	192	7
TAP	16	0	0
TAP	16	96	0
TAP	16	192	1
TAP	16	192	6
HLD	17	0	5	384
HLD	18	0	4	384
HLD	19	0	3	384
TAP	20	0	2
TAP	20	192	2
TAP	20	192	3
HLD	21	0	1	384
HLD	22	0	0	384
HLD	23	0	7	384
TAP	24	0	6
TAP	24	192	6
TAP	24	192	7
TAP	25	0	5
TAP	25	96	5
TAP	25	192	4
TAP	25	192	5
TAP	26	0	2
TAP	26	96	2
TAP	26	192	2
TAP	26	192	3
TAP	27	0	5
TAP	27	96	5
TAP	27	192	4
TAP	27	192	5
TAP	28	0	3
TAP	28	96	3
TAP	28	192	2
TAP	28	192	4
STR	29	0	1
SCR	29	0	1	96	192	4
STR	30	0	5
SCR	30	0	5	96	192	0
TAP	31	0	1
TAP	31	96	1
TAP	31	192	0
TAP	31	288	0
STR	32	0	0
SCR	32	0	0	96	192	3
STR	32	0	7
SCL	32	0	7	96	192	4
BRK	33	0	5
TAP	33	48	5
TAP	33	96	5
TAP	33	192	4
TAP	33	192	5
TAP	33	288	3
TAP	33	288	6
TAP	34	0	2
TAP	34	48	2
TAP	34	96	2
TAP	34	192	2
TAP	34	192	3
TAP	34	288	1
TAP	34	288	4
TAP	35	0	0
TAP	35	96	7
TAP	35	192	6
TAP	35	288	5
TAP	36	0	3
TAP	36	0	4
TAP	36	96	3
TAP	36	96	4
TAP	36	192	2
TAP	36	192	5
TAP	37	0	5
TAP	37	96	4
TAP	37	96	6
TAP	37	192	5
TAP	37	240	5
TAP	37	288	5
TAP	38	0	2
TAP	38	96	1
TAP	38	96	3
TAP	38	192	2
TAP	38	240	2
TAP	38	288	2
TAP	39	0	3
TAP	39	0	4
TAP	39	96	5
TAP	39	192	6
TAP	39	288	7
TAP	40	0	0
TAP	40	48	0
TAP	40	96	0
BRK	40	192	1
BRK	40	192	7
TAP	41	0	2
TAP	41	48	2
TAP	41	96	2
TAP	41	192	2
TAP	41	192	3
TAP	41	288	1
TAP	41	288	4
TAP	42	0	5
TAP	42	48	5
TAP	42	96	5
TAP	42	192	4
TAP	42	192	5
TAP	42	288	3
TAP	42	288	6
TAP	43	0	7
TAP	43	96	0
TAP	43	192	1
TAP	43	288	2
TAP	44	0	3
TAP	44	0	4
TAP	44	96	3
TAP	44	96	4
TAP	44	192	2
TAP	44	192	5
TAP	45	0	2
TAP	45	96	1
TAP	45	96	3
TAP	45	192	2
TAP	45	240	2
TAP	45	288	2
TAP	46	0	5
TAP	46	96	4
TAP	46	96	6
TAP	46	192	5
TAP	46	240	5
TAP	46	288	5
TAP	47	0	3
TAP	47	0	4
TAP	47	96	2
TAP	47	96	5
TAP	47	192	1
TAP	47	192	6
STR	47	288	0
SI_	47	288	0	96	192	3
STR	47	288	7
SI_	47	288	7	96	192	4
TTP	49	0	6	E	0	L1
TTP	49	192	5	B	0	L1
TTP	50	0	4	B	0	L1
TTP	50	0	4	E	0	L1
TTP	51	0	2	E	0	L1
TTP	51	192	2	B	0	L1
TTP	52	0	3	B	0	L1
TTP	52	0	4	E	0	L1
TTP	53	0	6	E	0	L1
TTP	53	192	5	E	0	L1
TTP	54	0	4	E	0	L1
TTP	54	192	3	E	0	L1
TTP	55	0	2	E	0	L1
TTP	55	192	1	E	0	L1
TTP	56	0	0	C	1	L1
TTP	56	0	2	B	0	L1
TTP	56	0	5	B	0	L1
XTP	57	0	6
XTP	57	96	6
TAP	57	192	7
TAP	57	288	7
TAP	58	0	0
TAP	58	96	0
TAP	58	192	1
TAP	58	192	7
TAP	59	0	2
TAP	59	96	2
TAP	59	192	3
TAP	59	288	3
TAP	60	0	4
TAP	60	96	4
TAP	60	192	3
TAP	60	192	4
TAP	61	0	5
TAP	61	96	5
TAP	61	192	4
TAP	61	288	4
TAP	62	0	3
TAP	62	96	3
TAP	62	192	2
TAP	62	192	4
TAP	63	0	1
TAP	63	96	1
TAP	63	192	0
TAP	63	288	0
STR	64	0	0
SUR	64	0	0	96	192	4
TAP	64	0	7
HLD	65	0	5	384
HLD	66	0	4	384
HLD	67	0	3	384
TAP	68	0	2
TAP	68	192	1
TAP	68	192	4
STR	69	0	0
SCR	69	0	0	96	192	3
STR	70	0	4
SCR	70	0	4	96	192	7
TAP	71	0	0
TAP	71	96	0
TAP	71	96	7
TAP	71	192	1
TAP	71	192	6
TAP	71	288	2
TAP	71	288	5
STR	72	0	3
SCL	72	0	3	96	192	0
STR	72	0	4
SCR	72	0	4	96	192	7
TTP	73	0	0	C	1	L1
TTP	74	0	4	E	0	L1
STR	75	0	5
SCR	75	0	5	96	192	0
STR	76	0	1
SUR	76	0	1	96	192	5
STR	77	0	6
SUL	77	0	6	96	192	2
TAP	78	0	1
TAP	78	96	1
TAP	78	192	0
TAP	78	192	7
TAP	79	0	1
TAP	79	96	1
TAP	79	192	2
TAP	79	288	2
TAP	80	0	3
TAP	80	0	4
TAP	80	96	3
TAP	80	96	4
TAP	80	192	2
TAP	80	192	5
BRK	81	0	6
TAP	81	48	6
TAP	81	96	6
TAP	81	96	7
TAP	81	192	1
TAP	81	240	1
TAP	81	288	0
TAP	81	288	1
TAP	82	0	2
TAP	82	96	3
TAP	82	192	2
TAP	82	192	3
TAP	82	288	1
TAP	82	288	4
TAP	83	0	5
TAP	83	48	5
TAP	83	96	4
TAP	83	96	5
TAP	83	192	2
TAP	83	240	2
TAP	83	288	2
TAP	83	288	3
TAP	84	0	1
TAP	84	96	0
TAP	84	192	0
TAP	84	192	7
TAP	84	288	0
TAP	84	288	7
TAP	85	0	6
TAP	85	48	6
TAP	85	96	6
TAP	85	96	7
TAP	85	192	4
TAP	85	192	5
TAP	85	288	2
TAP	85	288	3
TAP	86	0	1
TAP	86	48	1
TAP	86	96	0
TAP	86	96	1
TAP	86	192	2
TAP	86	192	3
TAP	86	288	4
TAP	86	288	5
HLD	87	0	6	96
HLD	87	0	7	96
HLD	87	192	0	96
HLD	87	192	1	96
TAP	88	0	7
TAP	88	96	0
TAP	88	96	7
TAP	88	192	1
TAP	88	192	6
TAP	88	288	2
TAP	88	288	5
BST	89	0	3
SXR	89	0	3	96	480	0
BST	89	0	4
SXL	89	0	4	96	480	7
STR	91	0	0
SXL	91	0	0	96	480	3
STR	91	0	7
SXR	91	0	7	96	480	4
TTP	93	0	0	C	0	L1

T_REC_TAP	235
T_REC_BRK	6
T_REC_XTP	2
T_REC_HLD	13
T_REC_XHO	0
T_REC_STR	26
T_REC_BST	2
T_REC_XST	0
T_REC_TTP	20
T_REC_THO	0
T_REC_SLD	28
T_REC_ALL	332
T_NUM_TAP	283
T_NUM_BRK	8
T_NUM_HLD	13
T_NUM_SLD	28
T_NUM_ALL	332
T_JUDGE_TAP	291
T_JUDGE_HLD	80
T_JUDGE_SLD	28
T_JUDGE_ALL	399
TTM_EACHPAIRS	72
TTM_SCR_TAP	141500
TTM_SCR_BRK	20800
TTM_SCR_HLD	13000
TTM_SCR_SLD	42000
TTM_SCR_ALL	217300
TTM_SCR_S	210050
TTM_SCR_SS	216500
TTM_RAT_ACV	10036

