VERSION	0.00.00	1.03.00
FES_MODE	0
BPM_DEF	165.000	165.000	165.000	165.000
MET_DEF	4	4
RESOLUTION	384
CLK_DEF	384
COMPATIBLE_CODE	MA2

BPM	0	0	165.000
MET	0	0	4	4

TAP	5	0	0
TAP	6	0	0
TAP	7	0	7
XTP	8	0	0
XTP	8	0	7
TAP	9	0	0
TAP	9	192	0
TAP	10	0	1
TAP	11	0	1
TAP	11	192	1
XTP	12	0	2
TAP	13	0	3
TAP	13	192	3
TAP	14	0	4
TAP	15	0	4
TAP	15	192	4
XTP	16	0	3
XTP	16	0	4
HLD	17	0	4	384
HLD	19	0	5	384
HLD	21	0	6	384
HLD	23	0	0	384
HLD	23	0	7	384
STR	25	0	7
SI_	25	0	7	96	288	4
STR	27	0	0
SI_	27	0	0	96	288	3
HLD	29	0	7	384
TAP	31	0	0
TAP	31	0	7
TAP	31	192	0
TAP	31	192	7
BRK	32	0	0
BRK	32	0	7
TAP	33	0	0
TAP	33	192	0
TAP	34	0	1
TAP	34	192	1
TAP	35	0	2
TAP	35	192	2
XTP	36	0	3
XTP	36	0	4
TAP	37	0	4
TAP	37	192	4
TAP	38	0	5
TAP	38	192	5
TAP	39	0	6
TAP	39	192	6
XTP	40	0	0
XTP	40	0	7
TAP	41	0	7
TAP	41	192	7
TAP	42	0	6
TAP	42	192	6
TAP	43	0	5
TAP	43	192	5
TAP	44	0	4
TAP	44	0	5
TAP	44	192	4
TAP	44	192	5
TAP	45	0	3
TAP	45	192	3
TAP	46	0	2
TAP	46	192	2
TAP	47	0	1
TAP	47	192	1
BRK	48	0	0
BRK	48	0	7
HLD	49	0	0	384
HLD	49	0	1	384
HLD	51	0	2	384
HLD	51	0	3	384
HLD	53	0	4	384
HLD	53	0	5	384
HLD	55	0	6	384
HLD	55	0	7	384
BRK	57	0	0
TAP	57	96	0
TAP	57	192	0
TAP	58	0	1
TAP	58	192	1
TAP	59	0	2
TAP	59	96	2
TAP	59	192	2
TAP	60	0	3
TAP	60	0	4
TAP	60	192	3
TAP	60	192	4
TAP	61	0	4
TAP	61	96	4
TAP	61	192	4
TAP	62	0	5
TAP	62	192	5
TAP	63	0	6
TAP	63	96	6
TAP	63	192	6
XTP	64	0	0
XTP	64	0	7
STR	65	0	7
SI_	65	0	7	96	288	3
STR	67	0	0
SI_	67	0	0	96	288	4
TAP	69	0	7
TAP	69	192	7
TAP	70	0	6
TAP	70	192	6
TAP	71	0	5
TAP	71	192	5
XTP	72	0	3
XTP	72	0	4
HLD	73	0	3	384
HLD	73	0	4	384
TTP	75	0	3	B	0	L1
TTP	75	0	4	B	0	L1
TTP	76	0	2	B	0	L1
TTP	76	0	5	B	0	L1
TTP	77	0	1	B	0	L1
TTP	77	0	6	B	0	L1
TTP	78	0	0	B	0	L1
TTP	78	0	7	B	0	L1
THO	79	0	0	384	C	1	L1
XTP	81	0	0
TAP	81	96	0
TAP	81	192	0
TAP	82	0	1
TAP	82	96	1
TAP	82	192	1
TAP	83	0	2
TAP	83	96	2
TAP	83	192	2
TAP	84	0	3
TAP	84	0	4
TAP	84	192	3
TAP	84	192	4
TAP	85	0	4
TAP	85	96	4
TAP	85	192	4
TAP	86	0	5
TAP	86	96	5
TAP	86	192	5
TAP	87	0	6
TAP	87	96	6
TAP	87	192	6
TAP	88	0	0
TAP	88	0	7
TAP	88	96	0
TAP	88	96	7
XTP	88	192	0
XTP	88	192	7
STR	89	0	0
SI_	89	0	0	96	288	3
STR	89	0	7
SI_	89	0	7	96	288	4
TTP	91	0	4	E	0	L1
THO	92	0	0	336	C	0	L1

T_REC_TAP	95
T_REC_BRK	5
T_REC_XTP	16
T_REC_HLD	16
T_REC_XHO	0
T_REC_STR	6
T_REC_BST	0
T_REC_XST	0
T_REC_TTP	9
T_REC_THO	2
T_REC_SLD	6
T_REC_ALL	155
T_NUM_TAP	126
T_NUM_BRK	5
T_NUM_HLD	18
T_NUM_SLD	6
T_NUM_ALL	155
T_JUDGE_TAP	131
T_JUDGE_HLD	143
T_JUDGE_SLD	6
T_JUDGE_ALL	280
TTM_EACHPAIRS	26
TTM_SCR_TAP	63000
TTM_SCR_BRK	13000
TTM_SCR_HLD	18000
TTM_SCR_SLD	9000
TTM_SCR_ALL	103000
TTM_SCR_S	99450
TTM_SCR_SS	102500
TTM_RAT_ACV	10048

