VERSION	0.00.00	1.03.00
FES_MODE	0
BPM_DEF	140.000	140.000	140.000	 70.000
MET_DEF	4	4
RESOLUTION	384
CLK_DEF	384
COMPATIBLE_CODE	MA2

BPM	0	0	140.000
BPM	91	24	 70.000
MET	0	0	4	4
MET	18	0	4	3
MET	24	0	8	3
MET	24	144	8	4
MET	24	336	8	3
MET	25	240	8	6
MET	26	144	4	4
MET	42	144	8	5
MET	43	240	8	7
MET	44	192	8	4
MET	45	0	4	4
MET	55	0	4	6
MET	67	0	8	6
MET	72	96	4	4
MET	89	96	16	13
MET	90	24	4	4
MET	91	24	4	2
MET	91	216	4	4

TAP	2	0	3
STR	2	0	4
SI_	2	0	4	96	288	7
STR	3	0	3
SI_	3	0	3	96	288	0
STR	4	0	4
SI_	4	0	4	96	288	7
STR	5	0	4
SI_	5	0	4	96	288	7
STR	6	0	4
SCR	6	0	4	96	288	7
STR	7	0	3
SCL	7	0	3	96	288	0
STR	8	0	3
SUL	8	0	3	96	288	4
STR	9	0	1
SUR	9	0	1	96	288	2
TAP	9	96	4
TAP	9	192	5
TAP	9	288	6
STR	10	0	7
SI_	10	0	7	96	96	3
STR	10	96	3
SCR	10	96	3	96	96	6
TAP	10	192	2
TAP	10	288	1
STR	11	0	0
SI_	11	0	0	96	96	4
STR	11	96	4
SCL	11	96	4	96	96	1
TAP	11	192	5
TAP	11	288	6
STR	12	0	7
SI_	12	0	7	96	96	3
STR	12	96	3
SCR	12	96	3	96	96	6
TAP	12	192	2
TAP	12	288	1
STR	13	0	0
SCL	13	0	0	96	96	5
STR	13	96	5
SI_	13	96	5	96	96	1
STR	13	192	1
SCR	13	192	1	96	96	4
TAP	13	288	4
STR	14	0	5
SI_	14	0	5	96	96	1
STR	14	96	1
SCL	14	96	1	96	96	6
TAP	14	192	2
TAP	14	288	3
STR	15	0	2
SI_	15	0	2	96	96	6
STR	15	96	6
SCR	15	96	6	96	96	1
TAP	15	192	5
TAP	15	288	4
STR	16	0	5
SCL	16	0	5	96	96	2
STR	16	96	2
SI_	16	96	2	96	96	6
TAP	16	192	1
STR	16	288	0
SI_	16	288	0	96	48	4
TAP	17	0	7
STR	17	96	2
SI_	17	96	2	96	48	7
STR	17	96	6
SI_	17	96	6	96	48	3
TAP	17	192	2
TAP	17	192	6
BRK	17	288	1
BRK	17	288	5
TAP	18	0	2
TAP	18	24	3
TAP	18	48	2
TAP	18	72	5
TAP	18	96	4
TAP	18	120	5
TAP	18	144	2
TAP	18	168	3
HLD	18	192	2	48
TTP	18	240	2	B	0	M1
TTP	18	240	3	B	0	M1
TAP	18	288	5
TAP	18	312	4
TAP	18	336	5
TAP	18	360	2
TAP	19	0	3
TAP	19	24	2
TAP	19	48	5
TAP	19	72	4
HLD	19	96	5	48
TTP	19	144	4	B	0	M1
TTP	19	144	5	B	0	M1
TAP	19	192	1
TAP	19	216	3
TAP	19	240	2
TAP	19	264	6
TAP	19	288	4
TAP	19	312	5
TAP	19	336	2
TAP	19	360	3
HLD	20	0	1	48
TTP	20	48	2	B	0	M1
TTP	20	48	3	B	0	M1
TAP	20	96	6
TAP	20	120	4
TAP	20	144	5
TAP	20	168	1
TAP	20	192	3
TAP	20	216	2
TAP	20	240	5
TAP	20	264	4
HLD	20	288	6	48
TTP	20	336	4	B	0	M1
TTP	20	336	5	B	0	M1
BRK	21	0	1
TAP	21	24	0
TAP	21	48	1
BRK	21	72	6
TAP	21	96	7
TAP	21	120	6
BRK	21	144	1
TAP	21	168	0
HLD	21	192	1	48
TTP	21	240	2	E	0	M1
TTP	21	240	3	E	0	M1
BRK	21	288	6
TAP	21	312	7
TAP	21	336	6
BRK	21	360	1
TAP	22	0	0
TAP	22	24	1
BRK	22	48	6
TAP	22	72	7
HLD	22	96	6	48
TTP	22	144	5	E	0	M1
TTP	22	144	6	E	0	M1
BRK	22	192	1
TAP	22	216	0
TAP	22	240	2
BRK	22	264	6
TAP	22	288	7
TAP	22	312	5
BRK	22	336	2
TAP	22	360	0
HLD	23	0	1	48
TTP	23	48	2	E	0	M1
TTP	23	48	3	E	0	M1
BRK	23	96	6
TAP	23	120	7
TAP	23	144	5
BRK	23	168	1
TAP	23	192	0
TAP	23	216	2
BRK	23	240	5
TAP	23	264	7
HLD	23	288	6	48
TTP	23	336	5	E	0	M1
TTP	23	336	6	E	0	M1
TAP	24	0	1
TAP	24	24	1
TAP	24	48	7
TAP	24	72	0
TAP	24	96	0
TAP	24	120	6
TAP	24	144	1
TAP	24	160	2
TAP	24	176	3
TAP	24	192	4
TAP	24	208	5
TAP	24	224	6
TAP	24	240	1
TAP	24	256	2
TAP	24	272	3
TAP	24	288	4
TAP	24	304	5
TAP	24	320	6
TAP	24	336	1
TAP	24	360	0
TAP	25	0	1
TAP	25	24	0
TAP	25	48	3
TAP	25	72	6
TAP	25	96	7
TAP	25	120	6
TAP	25	144	7
TAP	25	168	5
TAP	25	192	4
TAP	25	216	7
TAP	25	240	2
TAP	25	256	1
TAP	25	272	0
TAP	25	288	7
TAP	25	304	6
TAP	25	320	5
TAP	25	336	2
TAP	25	352	1
TAP	25	368	0
TAP	26	0	7
TAP	26	16	6
TAP	26	32	5
BRK	26	48	0
BRK	26	48	4
STR	26	144	1
SI_	26	144	1	96	48	6
STR	26	240	5
SI_	26	240	5	96	48	2
STR	26	336	1
SI_	26	336	1	96	48	6
STR	27	48	5
SI_	27	48	5	96	48	2
STR	27	144	1
SCL	27	144	1	96	48	6
TAP	27	240	4
TAP	27	336	4
TAP	27	336	5
TAP	28	24	3
TAP	28	24	4
TAP	28	96	2
TAP	28	96	3
STR	28	144	2
SI_	28	144	2	96	48	5
TAP	28	144	3
STR	28	240	6
SI_	28	240	6	96	48	1
TAP	28	288	6
STR	28	336	3
SI_	28	336	3	96	48	0
TAP	29	0	3
STR	29	48	4
SCR	29	48	4	96	96	0
STR	29	144	0
SCR	29	144	0	96	96	4
TAP	29	240	4
TAP	29	336	0
STR	30	48	2
SCR	30	48	2	96	48	5
STR	30	48	6
SCR	30	48	6	96	48	1
BRK	30	144	2
BRK	30	144	6
STR	30	288	4
SI_	30	288	4	96	48	7
STR	30	336	4
SI_	30	336	4	96	48	1
TAP	31	96	6
STR	31	144	6
SI_	31	144	6	96	48	3
SI_	31	144	6	96	48	4
TAP	31	240	6
STR	31	336	6
SI_	31	336	6	96	48	0
SI_	31	336	6	96	48	1
TAP	32	48	6
STR	32	144	6
SI_	32	144	6	96	48	3
STR	32	240	6
SCR	32	240	6	96	48	1
STR	32	336	3
SI_	32	336	3	96	48	0
STR	33	0	3
SI_	33	0	3	96	48	6
TAP	33	144	7
STR	33	240	2
SI_	33	240	2	96	48	5
STR	33	240	6
SI_	33	240	6	96	48	1
TAP	33	336	2
TAP	33	336	6
BRK	34	48	3
BRK	34	48	7
TAP	34	144	2
TAP	34	144	4
TAP	34	192	5
TAP	34	216	4
TAP	34	264	4
TAP	34	288	6
HLD	34	336	6	96
TAP	35	0	5
HLD	35	48	4	96
TAP	35	96	5
HLD	35	144	7	96
TAP	35	192	6
HLD	35	240	5	96
TAP	35	288	6
HLD	35	336	7	96
TAP	36	0	6
HLD	36	48	4	48
TAP	36	96	5
TTP	36	144	7	B	0	M1
TTP	36	168	2	B	0	M1
TTP	36	192	5	B	0	M1
TTP	36	216	4	B	0	M1
TTP	36	240	7	E	0	M1
TTP	36	264	3	E	0	M1
TTP	36	288	6	E	0	M1
TTP	36	312	4	E	0	M1
TTP	36	336	0	C	0	M1
TAP	37	0	0
TAP	37	48	1
TAP	37	48	7
TAP	37	96	2
TAP	37	96	6
TTP	37	144	2	B	0	M1
TTP	37	144	3	E	0	M1
BRK	37	144	7
BRK	37	216	0
TTP	37	216	5	B	0	M1
TTP	37	216	5	E	0	M1
TTP	37	288	0	C	1	M1
BRK	37	288	7
TAP	38	0	0
TAP	38	24	7
TAP	38	48	1
TAP	38	72	6
STR	38	96	0
SI_	38	96	0	96	48	4
TAP	38	120	7
TAP	38	144	1
BRK	38	192	0
BRK	38	192	4
TTP	38	216	0	C	1	M1
TAP	38	288	6
TAP	38	288	7
TAP	38	336	0
TAP	38	336	5
TAP	39	0	2
TAP	39	24	3
TAP	39	72	3
TAP	39	96	2
TAP	39	144	1
TAP	39	144	4
TAP	39	192	0
HLD	39	216	0	48
TAP	39	264	1
HLD	39	288	1	48
TAP	39	336	2
HLD	39	360	2	48
TAP	40	24	3
HLD	40	48	3	48
TAP	40	96	1
TTP	40	144	1	B	0	M1
TTP	40	168	4	B	0	M1
TTP	40	192	0	E	0	M1
TTP	40	216	6	E	0	M1
TTP	40	240	1	E	0	M1
TTP	40	264	5	E	0	M1
TTP	40	288	2	B	0	M1
TTP	40	312	3	B	0	M1
TTP	40	336	1	B	0	M1
TTP	40	360	4	B	0	M1
TTP	41	0	0	E	0	M1
TTP	41	24	6	E	0	M1
TTP	41	48	1	E	0	M1
TTP	41	72	5	E	0	M1
TTP	41	96	2	B	0	M1
TTP	41	120	3	B	0	M1
TTP	41	144	0	C	0	M1
BRK	41	216	0
BRK	41	216	6
BRK	41	288	1
BRK	41	288	5
TAP	42	0	0
TAP	42	48	1
TAP	42	48	7
TAP	42	96	2
TAP	42	96	6
TTP	42	144	2	B	0	M1
TTP	42	144	2	E	0	M1
BRK	42	144	7
BRK	42	216	0
TTP	42	216	5	B	0	M1
TTP	42	216	6	E	0	M1
TTP	42	288	0	C	1	M1
BRK	42	288	6
BRK	43	0	0
TTP	43	0	5	B	0	M1
TTP	43	0	6	E	0	M1
TTP	43	72	2	B	0	M1
TTP	43	72	2	E	0	M1
BRK	43	72	7
TTP	43	144	0	C	1	M1
BRK	43	144	1
TAP	43	240	6
TAP	43	264	7
TAP	43	288	5
TAP	43	312	0
TAP	43	336	4
TAP	43	360	1
TTP	44	0	6	E	0	M1
TTP	44	24	0	E	0	M1
TTP	44	48	5	E	0	M1
TTP	44	72	1	E	0	M1
TTP	44	96	4	E	0	M1
TTP	44	120	2	E	0	M1
TAP	44	144	7
TAP	44	168	0
TAP	44	192	7
TTP	44	216	1	E	0	M1
TTP	44	240	7	E	0	M1
TTP	44	264	2	E	0	M1
TTP	44	288	6	E	0	M1
TTP	44	312	3	E	0	M1
TTP	44	336	5	E	0	M1
TTP	44	360	0	C	0	M1
TTP	45	0	7	E	0	M1
TTP	45	16	7	B	0	M1
TTP	45	32	0	B	0	M1
TTP	45	48	3	E	0	M1
TTP	45	64	3	B	0	M1
TTP	45	80	4	B	0	M1
TTP	45	96	6	B	0	M1
TTP	45	112	5	B	0	M1
TTP	45	128	5	E	0	M1
TTP	45	144	1	E	0	M1
TTP	45	160	1	B	0	M1
TTP	45	176	2	B	0	M1
TTP	45	192	0	E	0	M1
TTP	45	204	7	E	0	M1
TTP	45	216	6	E	0	M1
TTP	45	228	5	E	0	M1
TTP	45	240	4	E	0	M1
TTP	45	252	3	E	0	M1
TTP	45	264	2	E	0	M1
TTP	45	276	1	E	0	M1
TTP	45	288	0	E	0	M1
TTP	45	300	7	E	0	M1
TTP	45	312	6	E	0	M1
TTP	45	324	5	E	0	M1
TTP	45	336	4	E	0	M1
TTP	45	348	3	E	0	M1
TTP	45	360	2	E	0	M1
TTP	45	372	1	E	0	M1
TTP	46	0	0	C	1	M1
TTP	46	0	0	E	0	M1
STR	46	192	3
SI_	46	192	3	96	36	0
STR	46	192	4
SI_	46	192	4	96	36	7
TAP	46	288	3
STR	46	288	4
SCR	46	288	4	96	96	3
BRK	46	360	1
TAP	47	144	6
TAP	47	168	0
TAP	47	192	7
TAP	47	216	1
TAP	47	240	0
STR	47	264	1
SI_	47	264	1	96	48	5
TAP	47	312	2
TAP	47	312	4
TAP	47	360	0
BRK	47	360	1
TAP	48	24	7
TAP	48	48	3
TAP	48	48	7
TAP	48	96	2
TAP	48	120	3
TAP	48	144	1
TAP	48	144	4
TAP	48	192	5
TAP	48	216	4
TAP	48	240	6
STR	48	264	1
SCL	48	264	1	96	96	2
TAP	48	288	3
TAP	48	312	2
TAP	48	336	7
BRK	48	360	1
TAP	49	144	1
TAP	49	168	0
TAP	49	192	3
TAP	49	216	4
TAP	49	240	7
STR	49	264	6
SI_	49	264	6	96	48	2
TAP	49	312	0
TAP	49	312	7
TAP	49	360	3
BRK	49	360	6
TAP	50	24	0
TAP	50	48	0
TAP	50	48	4
BRK	50	96	1
BRK	50	96	5
TAP	50	144	2
TAP	50	168	3
TAP	50	192	1
STR	50	216	0
SI_	50	216	0	96	48	4
TAP	50	240	2
STR	50	264	3
SCL	50	264	3	96	72	5
TAP	50	312	0
BRK	50	360	3
TAP	51	96	0
TAP	51	96	1
TAP	51	144	2
TAP	51	144	7
TAP	51	192	6
STR	51	216	7
SI_	51	216	7	96	48	3
TAP	51	240	5
STR	51	264	4
SCR	51	264	4	96	72	2
TAP	51	312	7
BRK	51	360	4
TAP	52	96	6
TAP	52	96	7
TAP	52	144	0
TAP	52	144	5
TAP	52	192	2
STR	52	216	3
SI_	52	216	3	96	48	7
TAP	52	240	1
STR	52	264	0
SCR	52	264	0	96	72	6
TAP	52	312	3
BRK	52	360	0
TAP	53	48	2
TAP	53	96	1
TAP	53	96	3
TAP	53	144	4
TAP	53	144	6
TAP	53	192	1
TAP	53	192	7
TAP	53	216	1
TAP	53	216	7
BRK	53	264	0
BRK	53	264	6
BRK	53	312	3
BRK	53	312	4
BRK	53	360	2
BRK	53	360	6
TAP	54	24	0
TAP	54	48	7
TAP	54	96	2
TAP	54	120	3
TAP	54	144	1
TAP	54	192	0
TAP	54	192	4
TAP	54	216	0
TAP	54	216	4
STR	54	264	2
SV_	54	264	2	96	48	7
STR	54	264	6
SI_	54	264	6	96	48	3
TAP	54	312	1
TAP	54	312	5
BRK	54	360	2
BRK	54	360	6
TAP	55	96	1
TAP	55	112	2
TAP	55	128	3
TAP	55	144	4
TAP	55	160	5
TAP	55	176	6
TAP	55	192	7
TAP	55	208	0
TAP	55	224	6
TAP	55	240	5
TAP	55	256	4
TAP	55	272	3
TAP	55	288	1
TAP	55	304	0
TAP	55	320	7
TAP	55	336	6
TAP	55	352	5
TAP	55	368	4
TAP	55	368	7
TAP	56	32	6
TAP	56	64	6
TAP	56	96	6
TAP	56	128	4
TAP	56	160	5
TAP	56	192	2
TAP	56	224	3
TAP	56	256	2
TAP	56	288	4
TAP	56	320	5
TAP	56	352	4
TAP	57	0	3
TAP	57	32	2
TAP	57	64	3
TAP	57	96	5
TAP	57	128	4
TAP	57	160	5
TAP	57	192	1
TAP	57	208	0
TAP	57	224	7
TAP	57	240	6
TAP	57	256	5
TAP	57	272	4
TAP	57	288	6
TAP	57	304	7
TAP	57	320	0
TAP	57	336	1
TAP	57	352	2
TAP	57	368	3
BRK	58	0	0
TAP	58	96	1
TAP	58	120	3
TAP	58	144	2
TAP	58	168	4
TAP	58	192	3
TAP	58	216	5
TAP	58	240	4
TAP	58	264	6
TAP	58	288	7
TAP	58	312	5
TAP	58	336	0
TAP	58	360	4
TAP	59	0	1
TAP	59	24	7
TAP	59	48	2
TAP	59	72	6
TAP	59	96	3
TAP	59	120	5
TAP	59	144	2
TAP	59	168	4
TAP	59	192	0
TAP	59	208	1
TAP	59	224	2
TAP	59	240	7
TAP	59	256	6
TAP	59	272	5
TAP	59	288	1
TAP	59	304	2
TAP	59	320	3
TAP	59	336	6
TAP	59	352	5
TAP	59	368	4
TAP	60	0	0
TAP	60	16	1
TAP	60	32	2
TAP	60	48	3
TAP	60	48	4
TAP	60	64	5
TAP	60	80	6
TAP	60	96	0
TAP	60	112	1
TAP	60	128	2
TAP	60	144	3
TAP	60	144	4
TAP	60	160	5
TAP	60	176	6
TAP	60	192	0
TAP	60	208	1
TAP	60	224	2
TAP	60	240	3
TAP	60	240	4
TAP	60	256	5
TAP	60	272	6
TAP	60	288	1
TAP	60	312	0
TAP	60	336	7
TAP	60	360	6
TAP	61	0	4
TAP	61	0	5
TTP	61	96	0	B	0	M1
TTP	61	96	0	E	0	M1
TTP	61	96	1	B	0	M1
TTP	61	96	2	E	0	M1
TAP	61	192	3
TAP	61	192	4
TTP	61	288	2	B	0	M1
TTP	61	288	2	E	0	M1
TTP	61	288	5	B	0	M1
TTP	61	288	6	E	0	M1
TAP	62	0	6
STR	62	0	7
SI_	62	0	7	96	48	3
TAP	62	48	7
STR	62	96	4
SI_	62	96	4	96	48	0
TAP	62	144	4
TAP	62	192	2
HLD	62	240	2	48
STR	62	288	1
SCR	62	288	1	96	96	6
TAP	62	336	1
TAP	63	0	0
TAP	63	48	0
TAP	63	96	7
TAP	63	144	7
BRK	63	192	6
BRK	63	192	7
BRK	63	216	6
BRK	63	216	7
BRK	63	240	6
BRK	63	240	7
BRK	63	288	0
BRK	63	288	1
BRK	63	312	0
BRK	63	312	1
BRK	63	336	0
BRK	63	336	1
TTP	64	0	4	E	0	M1
HLD	64	120	0	96
TAP	64	120	7
TAP	64	216	2
HLD	64	240	2	48
STR	64	288	1
SI_	64	288	1	96	48	5
TAP	64	336	0
STR	65	0	7
SI_	65	0	7	96	48	3
TAP	65	48	6
TAP	65	96	0
TAP	65	144	0
TAP	65	192	1
TAP	65	216	3
TAP	65	240	1
TAP	65	288	6
TAP	65	312	4
TAP	65	336	6
TAP	66	0	0
TAP	66	24	7
TAP	66	48	0
TAP	66	96	6
TAP	66	108	5
TAP	66	120	4
TAP	66	132	3
TAP	66	144	2
TAP	66	156	1
TAP	66	168	0
TAP	66	180	7
BST	66	192	2
SI_	66	192	2	96	24	6
TAP	66	204	3
TAP	66	216	4
TAP	66	228	5
TAP	66	240	6
TAP	66	252	7
TAP	66	264	0
TAP	66	276	1
TTP	66	288	0	C	1	M1
BRK	66	288	2
STR	67	0	3
SXL	67	0	3	96	384	1
STR	67	0	7
SXL	67	0	7	96	384	5
STR	68	192	4
SF_	68	192	4	96	96	0
TAP	69	96	5
TAP	69	128	3
TAP	69	160	4
TAP	69	192	2
TAP	69	224	4
TAP	69	256	3
TAP	69	288	2
TAP	69	288	5
STR	70	0	1
SXL	70	0	1	96	288	4
TTP	70	0	3	B	0	M1
TTP	70	0	4	B	0	M1
TTP	70	0	4	E	0	M1
TTP	70	96	5	B	0	M1
TTP	70	192	6	B	0	M1
TTP	70	288	0	B	0	M1
TTP	70	288	0	E	0	M1
TTP	70	288	7	B	0	M1
TAP	71	0	6
HLD	71	96	5	96
HLD	71	192	4	96
TAP	71	256	3
HLD	71	288	3	96
TAP	71	352	2
HLD	72	0	2	96
TAP	72	64	5
HLD	72	96	5	64
TAP	72	144	2
TAP	72	160	3
TAP	72	176	4
BST	72	192	5
SI_	72	192	5	96	48	2
SI_	72	192	5	96	48	2
STR	73	96	2
SCR	73	96	2	96	192	5
TTP	73	288	3	B	0	M1
TTP	73	288	4	E	0	M1
STR	74	96	5
SCL	74	96	5	96	192	2
TTP	74	288	4	B	0	M1
TTP	74	288	4	E	0	M1
STR	75	96	2
SCR	75	96	2	96	192	5
TTP	75	288	3	B	0	M1
TTP	75	288	4	E	0	M1
STR	76	96	5
SCL	76	96	5	96	192	2
THO	76	288	0	168	C	1	M1
BRK	77	72	0
STR	77	192	7
SCL	77	192	7	96	96	4
SCR	77	192	7	96	96	2
TAP	78	72	1
TAP	78	72	5
STR	78	192	0
SCL	78	192	0	96	96	5
SCR	78	192	0	96	96	3
TAP	79	72	2
TAP	79	72	6
TAP	79	144	1
TAP	79	144	4
TAP	79	192	1
TAP	79	192	4
TAP	79	240	2
TAP	79	240	5
TAP	79	288	3
TAP	79	288	6
TAP	79	336	7
TAP	80	0	1
TAP	80	0	4
TAP	80	48	0
TAP	80	96	3
STR	80	96	6
SI_	80	96	6	96	48	3
STR	80	192	1
SI_	80	192	1	96	48	4
TAP	80	192	6
TAP	80	288	1
STR	80	288	5
SUR	80	288	5	96	36	1
SV_	80	288	5	96	36	2
TAP	81	0	5
BRK	81	72	3
BRK	81	72	7
TAP	81	120	2
TAP	81	144	3
HLD	81	192	0	48
TAP	81	192	4
TAP	81	240	5
TAP	81	252	4
TAP	81	264	3
TAP	81	288	1
TAP	81	312	0
TAP	81	336	2
STR	81	360	3
SI_	81	360	3	96	48	7
TAP	82	24	0
TAP	82	24	6
BRK	82	72	3
BRK	82	72	4
TAP	82	120	5
TAP	82	144	0
TAP	82	144	5
TAP	82	192	2
TAP	82	216	3
TAP	82	240	1
TAP	82	240	4
TAP	82	288	6
TAP	82	312	6
TAP	82	336	4
TAP	82	360	5
TAP	83	0	1
TAP	83	24	3
TAP	83	48	2
BRK	83	72	3
BRK	83	72	7
TAP	83	120	4
TAP	83	120	5
TAP	83	144	4
TAP	83	144	5
TAP	83	192	3
HLD	83	192	7	48
TAP	83	240	2
TAP	83	252	3
TAP	83	264	4
TAP	83	288	6
TAP	83	312	7
TAP	83	336	5
STR	83	360	4
SI_	83	360	4	96	48	0
TAP	84	24	1
TAP	84	24	7
BRK	84	72	3
BRK	84	72	4
TAP	84	120	2
TAP	84	144	2
TAP	84	144	7
BRK	84	192	1
BRK	84	192	5
TAP	84	240	2
TAP	84	264	3
TAP	84	288	1
STR	84	312	7
SI_	84	312	7	96	48	3
TAP	84	336	0
BST	84	360	5
SCR	84	360	5	96	72	3
TAP	84	372	4
TAP	85	0	3
TAP	85	24	7
BRK	85	72	5
XTP	85	192	2
XTP	85	192	6
TAP	85	240	5
TAP	85	264	4
TAP	85	288	6
STR	85	312	0
SI_	85	312	0	96	48	4
TAP	85	336	7
BST	85	360	2
SCL	85	360	2	96	72	4
TAP	85	372	3
TAP	86	0	4
TAP	86	24	0
BRK	86	72	2
XTP	86	192	2
XTP	86	192	6
TAP	86	240	1
TAP	86	264	0
TAP	86	288	3
STR	86	312	4
SI_	86	312	4	96	48	0
TAP	86	336	1
BST	86	360	6
SCL	86	360	6	96	72	0
TAP	86	372	7
TAP	87	0	0
TAP	87	24	4
BRK	87	72	6
TAP	87	144	4
TAP	87	192	3
TAP	87	192	5
TAP	87	240	2
TAP	87	240	4
TAP	87	288	1
TAP	87	288	7
TAP	87	312	1
TAP	87	312	7
BRK	87	360	0
BRK	87	360	6
BRK	88	24	3
BRK	88	24	4
BRK	88	72	2
BRK	88	72	6
TAP	88	120	0
TAP	88	144	7
TAP	88	192	1
TAP	88	192	6
TAP	88	240	5
TAP	88	264	2
TAP	88	288	3
TAP	88	288	4
TAP	88	312	3
TAP	88	312	4
TAP	88	360	2
TAP	88	360	5
BRK	89	24	0
BRK	89	24	7
BRK	89	48	0
BRK	89	48	7
TAP	89	96	6
TAP	89	120	0
TAP	89	144	6
TAP	89	168	0
TAP	89	192	7
TAP	89	216	1
TAP	89	240	7
TAP	89	264	2
TAP	89	288	3
TAP	89	312	2
TAP	89	336	5
TAP	89	360	4
TAP	90	0	5
TAP	90	24	1
TAP	90	36	0
TAP	90	48	7
TAP	90	60	6
TAP	90	72	3
TAP	90	84	2
TAP	90	96	1
TAP	90	108	0
TAP	90	120	5
TAP	90	132	4
TAP	90	144	3
TAP	90	156	2
TAP	90	168	7
TAP	90	180	6
TAP	90	192	5
TAP	90	204	4
BRK	90	216	1
TAP	90	228	2
TAP	90	240	3
TAP	90	252	4
TAP	90	264	5
TAP	90	276	6
TAP	90	288	7
TAP	90	300	0
BRK	90	312	5
TAP	90	324	4
TAP	90	336	3
TAP	90	348	2
TAP	90	360	1
TAP	90	372	0
TAP	91	0	7
TAP	91	12	6
STR	91	24	1
SI_	91	24	1	96	16	4
STR	91	24	5
SI_	91	24	5	96	16	0
BST	91	120	1
SCR	91	120	1	96	216	5
BST	91	120	5
SCR	91	120	5	96	216	1
TTP	91	128	0	C	1	M1
TAP	92	88	5
TAP	92	96	4
TAP	92	104	3
TAP	92	112	2

T_REC_TAP	568
T_REC_BRK	92
T_REC_XTP	4
T_REC_HLD	28
T_REC_XHO	0
T_REC_STR	88
T_REC_BST	7
T_REC_XST	0
T_REC_TTP	126
T_REC_THO	1
T_REC_SLD	101
T_REC_ALL	1015
T_NUM_TAP	786
T_NUM_BRK	99
T_NUM_HLD	29
T_NUM_SLD	101
T_NUM_ALL	1015
T_JUDGE_TAP	885
T_JUDGE_HLD	43
T_JUDGE_SLD	101
T_JUDGE_ALL	1029
TTM_EACHPAIRS	108
TTM_SCR_TAP	393000
TTM_SCR_BRK	257400
TTM_SCR_HLD	29000
TTM_SCR_SLD	151500
TTM_SCR_ALL	830900
TTM_SCR_S	796400
TTM_SCR_SS	821000
TTM_RAT_ACV	10120

