VERSION	0.00.00	1.03.00
FES_MODE	0
BPM_DEF	140.000	140.000	140.000	140.000
MET_DEF	4	4
RESOLUTION	384
CLK_DEF	384
COMPATIBLE_CODE	MA2

BPM	0	0	140.000
MET	0	0	4	4
MET	18	0	4	3
MET	24	0	8	3
MET	24	144	8	4
MET	24	336	8	3
MET	25	240	8	6
MET	26	144	4	4
MET	42	144	8	5
MET	43	240	8	7
MET	44	192	8	4
MET	45	0	4	4
MET	55	0	4	6
MET	67	0	8	6
MET	72	96	4	4
MET	89	96	16	13
MET	90	24	4	4
MET	91	24	4	2
MET	91	216	4	4

STR	2	0	3
SI_	2	0	3	96	288	0
STR	3	0	4
SI_	3	0	4	96	288	7
STR	4	0	3
SI_	4	0	3	96	288	0
HLD	5	0	7	192
TAP	5	192	0
STR	6	0	4
SI_	6	0	4	96	288	7
STR	7	0	3
SI_	7	0	3	96	288	0
STR	8	0	4
SI_	8	0	4	96	288	7
HLD	9	0	0	192
TAP	9	192	7
TAP	9	288	6
STR	10	0	5
SCL	10	0	5	96	288	2
STR	11	0	1
SCL	11	0	1	96	288	6
STR	12	0	5
SCL	12	0	5	96	288	2
HLD	13	0	1	192
TAP	13	192	3
STR	14	0	2
SCR	14	0	2	96	288	5
STR	15	0	6
SCR	15	0	6	96	288	1
STR	16	0	2
SCR	16	0	2	96	288	5
HLD	17	0	6	192
TAP	17	192	4
BRK	17	288	7
TAP	18	0	4
TAP	18	0	6
TAP	18	72	3
TAP	18	72	5
TAP	18	144	2
TAP	18	144	4
TAP	18	192	2
TAP	18	192	4
TAP	18	240	1
TAP	18	288	1
TAP	18	288	3
TAP	18	360	2
TAP	18	360	4
TAP	19	48	3
TAP	19	48	5
TAP	19	96	3
TAP	19	96	5
TAP	19	144	6
TAP	19	192	4
TAP	19	192	6
TAP	19	264	3
TAP	19	264	5
TAP	19	336	2
TAP	19	336	4
TAP	20	0	2
TAP	20	0	4
TAP	20	48	1
TAP	20	96	1
TAP	20	96	3
TAP	20	168	2
TAP	20	168	4
TAP	20	240	1
TAP	20	240	5
TAP	20	288	1
TAP	20	288	5
TAP	21	0	4
TAP	21	0	6
TAP	21	72	5
TAP	21	72	7
TAP	21	144	0
TAP	21	144	6
TAP	21	192	0
TAP	21	192	6
TAP	21	240	1
TAP	21	288	1
TAP	21	288	3
TAP	21	360	0
TAP	21	360	2
TAP	22	48	1
TAP	22	48	7
TAP	22	96	1
TAP	22	96	7
TAP	22	144	6
TAP	22	192	4
TAP	22	192	6
TAP	22	264	5
TAP	22	264	7
TAP	22	336	0
TAP	22	336	6
TAP	23	0	0
TAP	23	0	6
TAP	23	48	1
TAP	23	96	1
TAP	23	96	3
TAP	23	168	0
TAP	23	168	2
TAP	23	240	1
TAP	23	240	7
TAP	23	288	1
TAP	23	288	7
TAP	23	336	1
TAP	23	336	7
TAP	24	0	6
TAP	24	48	5
TAP	24	96	4
TAP	24	144	3
TAP	24	192	2
TAP	24	240	1
TAP	24	288	0
STR	24	336	7
SI_	24	336	7	96	48	3
TAP	25	0	7
STR	25	48	0
SI_	25	48	0	96	48	4
TAP	25	96	0
STR	25	144	6
SI_	25	144	6	96	48	2
TAP	25	192	6
STR	25	240	1
SI_	25	240	1	96	48	5
TAP	25	288	1
TAP	25	336	7
XTP	26	0	7
TAP	26	144	2
HLD	26	144	6	96
TAP	26	192	2
TAP	26	240	3
TAP	26	288	2
HLD	26	336	1	96
TAP	26	336	5
TAP	27	0	5
TAP	27	48	4
TAP	27	96	5
TAP	27	144	2
HLD	27	144	6	96
TAP	27	192	2
TAP	27	240	3
TAP	27	288	2
HLD	27	336	1	96
TAP	27	336	5
TAP	28	0	5
TAP	28	48	4
TAP	28	96	5
HLD	28	144	2	96
TAP	28	144	6
TAP	28	192	6
TAP	28	240	7
TAP	28	288	6
TAP	28	336	1
HLD	28	336	5	96
TAP	29	0	1
TAP	29	48	0
TAP	29	96	1
HLD	29	144	2	96
TAP	29	144	6
TAP	29	192	6
TAP	29	240	7
TAP	29	288	6
TAP	29	336	1
HLD	29	336	5	96
TAP	30	0	1
BRK	30	48	0
STR	30	144	6
SCL	30	144	6	96	48	3
TAP	30	144	7
TAP	30	240	0
TAP	30	336	0
STR	30	336	1
SCR	30	336	1	96	48	4
TAP	31	48	7
TAP	31	144	6
HLD	31	192	6	48
TAP	31	240	4
HLD	31	288	4	48
TAP	31	336	3
HLD	32	0	3	48
TAP	32	48	1
STR	32	144	2
SCL	32	144	2	96	48	7
TAP	32	144	3
TAP	32	240	4
TAP	32	336	4
STR	32	336	5
SCR	32	336	5	96	48	0
TAP	33	48	3
HLD	33	144	2	48
HLD	33	144	4	48
HLD	33	216	3	48
HLD	33	216	5	48
HLD	33	288	1	48
HLD	33	288	4	48
HLD	33	360	3	48
HLD	33	360	6	48
TAP	34	48	2
TAP	34	48	5
TAP	34	96	2
TAP	34	96	5
TAP	34	144	6
TAP	34	192	6
STR	34	240	4
SI_	34	240	4	96	48	0
TAP	34	288	4
STR	34	336	7
SI_	34	336	7	96	48	3
TAP	35	0	7
XTP	35	48	0
XTP	35	96	0
XTP	35	144	1
XTP	35	144	4
TAP	35	192	2
TAP	35	240	3
TAP	35	240	6
TAP	35	288	5
TAP	35	336	1
TAP	35	336	4
TAP	36	0	2
TAP	36	48	3
TAP	36	48	6
TAP	36	96	7
HLD	36	144	7	24
HLD	36	192	7	24
HLD	36	240	0	24
HLD	36	288	0	24
HLD	36	336	1	24
HLD	36	336	6	24
HLD	37	0	2	24
HLD	37	0	5	24
HLD	37	48	3	24
HLD	37	48	4	24
TAP	37	96	3
TAP	37	96	4
XTP	37	144	1
XTP	37	144	7
TAP	37	216	4
TAP	37	216	5
HLD	37	288	1	96
TAP	37	288	3
TAP	38	0	6
TAP	38	48	6
TAP	38	96	0
TAP	38	144	0
BRK	38	192	1
BRK	38	192	7
XTP	38	240	2
XTP	38	240	6
XTP	38	288	3
XTP	38	288	5
TAP	38	336	4
TAP	39	0	4
TAP	39	48	3
TAP	39	48	5
TAP	39	96	2
TAP	39	96	6
TAP	39	144	7
TAP	39	192	0
TAP	39	240	1
TAP	39	288	2
TAP	39	336	3
TAP	40	0	4
TAP	40	48	5
TAP	40	96	6
HLD	40	144	6	48
HLD	40	144	7	48
HLD	40	240	4	48
HLD	40	240	5	48
HLD	40	336	2	48
HLD	40	336	3	48
HLD	41	48	0	48
HLD	41	48	1	48
TAP	41	144	0
TAP	41	144	7
TAP	41	216	4
TAP	41	216	6
HLD	41	288	1	96
STR	41	288	3
SLR	41	288	3	96	96	7
XTP	42	144	0
XTP	42	216	0
XTP	42	216	2
TTP	42	288	0	C	1	M1
TTP	42	288	1	B	0	M1
TTP	42	288	2	E	0	M1
TTP	42	288	3	B	0	M1
TTP	42	288	3	E	0	M1
XTP	43	0	7
XTP	43	72	5
XTP	43	72	7
TTP	43	144	0	C	1	M1
TTP	43	144	4	B	0	M1
TTP	43	144	5	E	0	M1
TTP	43	144	6	B	0	M1
TTP	43	144	6	E	0	M1
TAP	43	240	0
TAP	43	264	7
TAP	43	288	0
TAP	43	312	7
TAP	43	336	1
TAP	43	360	6
TAP	44	0	1
TAP	44	24	6
TAP	44	48	0
TAP	44	72	7
TAP	44	96	0
TAP	44	120	7
TAP	44	144	0
TAP	44	168	7
STR	44	192	0
SCR	44	192	0	96	96	5
STR	44	288	6
SXL	44	288	6	96	240	3
TAP	44	336	6
HLD	45	288	2	96
TAP	46	0	4
HLD	46	48	1	96
HLD	46	48	5	96
BRK	46	192	7
STR	46	288	3
SCL	46	288	3	96	96	5
XTP	46	360	4
TAP	47	144	7
TAP	47	192	2
TAP	47	192	6
TAP	47	240	3
TAP	47	264	4
STR	47	312	2
SXR	47	312	2	96	168	3
TAP	47	312	5
XTP	48	0	4
STR	48	288	4
SCR	48	288	4	96	96	2
XTP	48	360	3
TAP	49	144	0
TAP	49	192	1
TAP	49	192	5
TAP	49	240	4
TAP	49	264	3
TAP	49	312	2
TAP	49	312	5
TAP	49	360	1
HLD	49	360	6	72
TAP	50	48	0
TAP	50	96	0
TAP	50	144	7
TAP	50	192	3
TAP	50	192	6
TAP	50	240	5
TAP	50	264	4
TAP	50	312	3
TAP	50	312	6
TAP	50	360	3
HLD	50	360	6	72
TAP	51	48	2
TAP	51	96	2
TAP	51	96	5
TAP	51	144	1
TAP	51	144	4
TAP	51	192	1
TAP	51	192	4
TAP	51	240	2
TAP	51	264	3
TAP	51	312	1
TAP	51	312	4
HLD	51	360	1	72
TAP	51	360	4
TAP	52	48	5
TAP	52	96	2
TAP	52	96	5
TAP	52	144	3
TAP	52	144	6
TAP	52	192	3
TAP	52	192	6
TAP	52	240	5
TAP	52	264	4
TAP	52	312	3
TAP	52	312	6
TAP	52	360	3
HLD	52	360	6	72
TAP	53	48	2
TAP	53	96	2
TAP	53	96	5
TAP	53	144	2
TAP	53	144	5
HLD	53	192	1	72
TAP	53	192	4
TAP	53	264	3
TAP	53	312	2
TAP	53	312	4
TAP	53	360	3
HLD	53	360	5	72
TAP	54	48	3
TAP	54	96	2
TAP	54	96	6
TAP	54	144	2
TAP	54	144	6
HLD	54	192	1	72
TAP	54	264	3
TAP	54	312	4
TAP	54	312	6
STR	54	360	0
SCR	54	360	0	96	312	7
STR	54	360	7
SCL	54	360	7	96	312	0
TAP	56	192	7
HLD	56	224	7	64
TAP	56	288	6
HLD	56	320	6	64
TAP	57	0	5
HLD	57	32	5	64
TAP	57	96	4
HLD	57	128	4	64
TAP	57	192	3
TAP	57	240	3
TAP	57	288	2
TAP	57	336	1
HLD	58	0	0	96
TAP	58	96	7
TAP	58	144	0
TAP	58	192	1
TAP	58	240	2
TAP	58	288	3
TAP	58	336	4
HLD	59	0	5	96
TAP	59	48	4
HLD	59	96	2	96
TAP	59	144	3
TTP	59	192	7	E	0	M1
TTP	59	208	6	B	0	M1
TTP	59	224	5	B	0	M1
TTP	59	240	5	E	0	M1
TTP	59	288	1	E	0	M1
TTP	59	304	1	B	0	M1
TTP	59	320	2	B	0	M1
TTP	59	336	3	E	0	M1
TTP	60	0	7	B	0	M1
TTP	60	16	6	B	0	M1
TTP	60	32	5	B	0	M1
TTP	60	48	5	E	0	M1
TTP	60	96	0	B	0	M1
TTP	60	112	1	B	0	M1
TTP	60	128	2	B	0	M1
TTP	60	144	3	E	0	M1
TTP	60	192	7	E	0	M1
TTP	60	208	6	B	0	M1
TTP	60	224	5	B	0	M1
TTP	60	240	5	E	0	M1
TTP	60	288	1	E	0	M1
TTP	60	304	1	B	0	M1
TTP	60	320	2	B	0	M1
TTP	60	336	3	E	0	M1
TAP	61	0	7
TAP	61	144	6
TAP	61	168	5
TAP	61	192	4
TAP	61	336	1
TAP	61	360	2
TAP	62	0	3
TAP	62	48	6
TAP	62	72	5
TAP	62	96	4
TAP	62	144	1
TAP	62	168	2
TAP	62	192	3
TAP	62	240	6
TAP	62	264	5
TAP	62	288	4
TAP	62	336	2
TAP	62	360	1
TAP	63	0	0
TAP	63	48	5
TAP	63	72	6
TAP	63	96	7
TAP	63	144	2
TAP	63	168	1
TAP	63	192	0
XTP	63	240	0
XTP	63	240	7
BRK	63	288	1
BRK	63	288	6
XTP	63	336	2
XTP	63	336	5
HLD	64	0	3	120
HLD	64	0	4	120
TAP	64	216	3
TAP	64	240	4
TAP	64	288	2
TAP	64	288	5
TAP	64	336	2
TAP	64	336	5
TAP	65	0	3
TAP	65	0	6
TAP	65	48	4
TAP	65	48	7
TAP	65	96	0
TAP	65	96	5
TAP	65	144	1
TAP	65	144	6
XTP	65	192	2
XTP	65	192	7
TAP	65	240	0
TAP	65	240	3
XTP	65	288	1
XTP	65	288	4
TAP	65	336	2
TAP	65	336	5
XTP	66	0	3
XTP	66	0	6
TAP	66	48	4
TAP	66	48	7
TAP	66	96	6
TAP	66	120	5
TAP	66	144	4
TAP	66	192	1
TAP	66	216	2
TAP	66	240	3
TAP	66	288	6
TAP	66	312	5
TAP	66	336	4
BST	67	0	0
SCR	67	0	0	96	576	7
TTP	67	192	7	E	0	M1
TTP	67	288	6	E	0	M1
TTP	68	0	5	E	0	M1
TTP	68	96	4	E	0	M1
TTP	68	192	3	E	0	M1
TTP	68	288	2	E	0	M1
TTP	69	0	1	E	0	M1
TTP	69	96	0	E	0	M1
TTP	69	192	0	C	0	M1
TTP	69	288	4	E	0	M1
STR	70	0	7
SCL	70	0	7	96	576	0
TTP	70	192	1	E	0	M1
TTP	70	288	2	E	0	M1
TTP	71	0	3	E	0	M1
TTP	71	96	4	E	0	M1
TTP	71	192	5	E	0	M1
TTP	71	288	6	E	0	M1
TTP	72	0	7	E	0	M1
TAP	72	96	0
TAP	72	96	7
TAP	72	168	0
TAP	72	168	7
BRK	72	240	1
BRK	72	240	6
BRK	72	288	1
BRK	72	288	6
STR	73	96	2
SI_	73	96	2	96	192	5
HLD	73	96	4	192
HLD	74	96	3	192
STR	74	96	5
SI_	74	96	5	96	192	2
STR	75	96	2
SV_	75	96	2	96	192	5
HLD	75	96	4	192
TAP	76	96	3
TAP	76	96	5
TAP	76	192	2
TAP	76	192	6
TAP	76	288	1
TAP	76	288	7
XHO	77	72	3	120
XHO	77	72	6	120
TAP	77	288	2
TAP	77	288	5
TAP	78	0	2
TAP	78	0	5
XHO	78	72	1	120
XHO	78	72	4	120
TAP	78	288	2
TAP	78	288	5
TAP	79	0	2
TAP	79	0	5
XHO	79	72	3	120
XHO	79	72	6	120
TAP	79	288	2
TAP	79	288	5
TAP	79	336	2
TAP	79	336	5
TAP	80	0	3
TAP	80	0	4
TAP	80	48	3
TAP	80	48	4
TAP	80	96	2
TAP	80	96	5
TAP	80	144	2
TAP	80	144	5
TAP	80	192	1
TAP	80	192	6
TAP	80	240	1
TAP	80	240	6
TAP	80	288	0
TAP	80	288	7
TAP	80	336	0
TAP	80	336	7
HLD	81	0	1	72
STR	81	0	6
SCL	81	0	6	96	96	0
TAP	81	240	3
TAP	81	288	2
TAP	81	288	6
TAP	81	336	7
TAP	81	360	0
HLD	82	24	1	72
STR	82	24	5
SXR	82	24	5	96	168	0
XTP	82	288	3
STR	83	0	1
SCR	83	0	1	96	96	7
HLD	83	0	5	72
TAP	83	240	4
TAP	83	288	1
TAP	83	288	5
TAP	83	336	0
TAP	83	360	7
TAP	84	24	1
TAP	84	24	6
HLD	84	72	2	72
TAP	84	72	5
TAP	84	144	4
TAP	84	192	4
TAP	84	240	3
TAP	84	288	2
TAP	84	288	7
TAP	84	336	1
TAP	84	360	0
TAP	85	24	2
TAP	85	24	7
HLD	85	72	2	72
TAP	85	72	7
TAP	85	144	6
TAP	85	192	1
TAP	85	192	6
TAP	85	240	0
TAP	85	240	5
TAP	85	288	1
TAP	85	288	4
TAP	85	336	6
TAP	85	360	7
TAP	86	24	0
TAP	86	24	5
TAP	86	72	0
HLD	86	72	5	72
TAP	86	144	1
TAP	86	192	1
TAP	86	192	6
TAP	86	240	2
TAP	86	240	7
TAP	86	288	3
TAP	86	288	6
TAP	86	336	1
TAP	86	360	0
TAP	87	24	2
TAP	87	24	7
HLD	87	72	2	72
TAP	87	72	7
TAP	87	144	6
TAP	87	192	1
TAP	87	192	6
TAP	87	240	1
TAP	87	240	6
TAP	87	288	0
HLD	87	288	5	72
TAP	87	360	7
TAP	88	24	0
TAP	88	24	6
HLD	88	72	1	72
TAP	88	72	7
TAP	88	144	7
TAP	88	192	2
TAP	88	192	6
TAP	88	240	2
TAP	88	240	6
TAP	88	288	3
TAP	88	312	4
TAP	88	360	2
TAP	88	360	5
TAP	89	24	1
TAP	89	24	6
HLD	89	72	0	120
HLD	89	72	7	120
TAP	89	264	1
TAP	89	264	3
TAP	89	336	4
TAP	89	336	6
XTP	90	24	7
XTP	90	48	6
XTP	90	72	5
XTP	90	96	4
XTP	90	120	3
XTP	90	144	2
XTP	90	168	1
XTP	90	192	0
XTP	90	216	7
XTP	90	240	6
XTP	90	264	5
XTP	90	288	4
XTP	90	312	3
XTP	90	336	2
XTP	90	360	1
XTP	91	0	0
THO	91	216	0	768	C	1	M1
TTP	91	216	2	B	0	M1
TTP	91	216	2	E	0	M1
TTP	91	216	5	B	0	M1
TTP	91	216	6	E	0	M1
TTP	93	216	1	B	0	M1
TTP	93	216	2	B	0	M1
TTP	93	216	3	B	0	M1
TTP	93	216	4	B	0	M1
TTP	93	216	5	B	0	M1
TTP	93	216	6	B	0	M1

T_REC_TAP	438
T_REC_BRK	11
T_REC_XTP	47
T_REC_HLD	76
T_REC_XHO	6
T_REC_STR	37
T_REC_BST	1
T_REC_XST	0
T_REC_TTP	61
T_REC_THO	1
T_REC_SLD	38
T_REC_ALL	716
T_NUM_TAP	583
T_NUM_BRK	12
T_NUM_HLD	83
T_NUM_SLD	38
T_NUM_ALL	716
T_JUDGE_TAP	595
T_JUDGE_HLD	175
T_JUDGE_SLD	38
T_JUDGE_ALL	808
TTM_EACHPAIRS	179
TTM_SCR_TAP	291500
TTM_SCR_BRK	31200
TTM_SCR_HLD	83000
TTM_SCR_SLD	57000
TTM_SCR_ALL	462700
TTM_SCR_S	447700
TTM_SCR_SS	461500
TTM_RAT_ACV	10026

