VERSION	0.00.00	1.03.00
FES_MODE	0
BPM_DEF	140.000	140.000	140.000	140.000
MET_DEF	4	4
RESOLUTION	384
CLK_DEF	384
COMPATIBLE_CODE	MA2

BPM	0	0	140.000
MET	0	0	4	4
MET	18	0	4	3
MET	24	0	8	3
MET	24	144	8	4
MET	24	336	8	3
MET	25	240	8	6
MET	26	144	4	4
MET	42	144	8	5
MET	43	240	8	7
MET	44	192	8	4
MET	45	0	4	4
MET	55	0	4	6
MET	67	0	8	6
MET	72	96	4	4
MET	89	96	16	13
MET	90	24	4	4
MET	91	24	4	2
MET	91	216	4	4

HLD	2	0	1	384
HLD	3	0	0	384
HLD	4	0	7	384
TAP	5	0	6
TAP	5	192	6
TAP	5	192	7
HLD	6	0	5	384
HLD	7	0	4	384
HLD	8	0	3	384
TAP	9	0	2
TAP	9	192	2
TAP	9	192	3
HLD	10	0	1	192
TAP	10	192	0
HLD	11	0	6	192
TAP	11	192	7
HLD	12	0	1	192
TAP	12	192	0
TAP	13	0	7
TAP	13	96	7
TAP	13	192	0
TAP	13	192	6
HLD	14	0	5	192
TAP	14	192	4
HLD	15	0	2	192
TAP	15	192	3
STR	16	0	3
SCL	16	0	3	96	144	0
STR	16	0	4
SCR	16	0	4	96	144	7
TAP	17	0	0
TAP	17	0	7
TAP	17	192	1
TAP	17	192	6
TAP	18	0	5
TAP	18	96	6
TAP	18	192	0
TAP	18	192	7
TAP	18	288	1
TAP	19	0	2
TAP	19	96	3
TAP	19	96	4
TAP	19	192	5
TAP	19	288	6
TAP	20	0	0
TAP	20	0	7
TAP	20	96	1
TAP	20	96	6
TAP	20	192	2
TAP	20	192	5
TAP	20	288	3
TAP	20	288	4
TAP	21	0	5
TAP	21	48	5
TAP	21	96	5
TAP	21	192	4
TAP	21	192	6
TAP	21	288	2
TAP	21	336	2
TAP	22	0	2
TAP	22	96	1
TAP	22	96	3
TAP	22	192	5
TAP	22	240	5
TAP	22	288	5
TAP	23	0	4
TAP	23	0	5
TAP	23	96	2
TAP	23	144	2
TAP	23	192	2
TAP	23	288	2
TAP	23	288	3
TAP	24	0	1
TAP	24	48	1
TAP	24	96	0
XTP	24	144	0
XTP	24	240	0
XTP	24	240	1
TAP	24	336	6
TAP	25	0	6
TAP	25	48	7
XTP	25	96	7
XST	25	192	6
SCL	25	192	6	96	120	3
XTP	25	192	7
XTP	26	144	2
TAP	26	240	2
TAP	26	336	3
TAP	27	48	3
TAP	27	144	4
TAP	27	240	4
TAP	27	336	3
TAP	27	336	5
TAP	28	144	6
TAP	28	240	6
TAP	28	336	7
TAP	29	48	7
TAP	29	144	0
TAP	29	240	0
TAP	29	336	1
TAP	29	336	7
HLD	30	144	6	192
TAP	30	336	7
TAP	31	48	0
HLD	31	144	1	192
TAP	31	336	0
TAP	32	48	7
HLD	32	144	6	192
TAP	32	336	7
TAP	33	48	7
TAP	33	144	6
TAP	33	144	7
TAP	33	240	4
TAP	33	240	5
TAP	33	336	2
TAP	33	336	3
TAP	34	48	1
TAP	34	48	4
TAP	34	144	5
TAP	34	240	5
TAP	34	336	4
TAP	34	336	5
TAP	35	144	2
TAP	35	240	2
TAP	35	336	2
TAP	35	336	3
TAP	36	144	5
TAP	36	240	5
TAP	36	336	4
TAP	37	48	4
XTP	37	144	3
XTP	37	144	4
XTP	37	240	3
XTP	37	240	4
XTP	37	336	2
XTP	37	336	5
TAP	38	144	1
TAP	38	240	1
TAP	38	336	0
TAP	38	336	1
TAP	39	144	6
TAP	39	240	6
TAP	39	336	6
TAP	39	336	7
TAP	40	144	1
TAP	40	240	1
TAP	40	336	0
TAP	41	48	0
XTP	41	144	0
XTP	41	144	7
XTP	41	240	0
XTP	41	240	7
XTP	41	336	1
XTP	41	336	6
XHO	42	144	4	72
XHO	42	144	5	72
XHO	43	0	2	72
XHO	43	0	3	72
XTP	43	240	3
XTP	43	240	4
TAP	43	336	5
TAP	44	0	5
TAP	44	48	4
TAP	44	96	4
TAP	44	144	3
TAP	44	192	3
TAP	44	240	2
STR	44	288	2
SCL	44	288	2	96	264	4
XHO	46	48	3	144
XHO	46	48	4	144
XTP	46	288	2
XTP	46	288	5
XTP	47	0	1
TAP	47	48	1
TAP	47	96	0
TAP	47	96	1
TAP	47	192	2
TAP	47	240	2
TAP	47	288	2
TAP	47	288	3
TAP	47	336	2
TAP	47	336	3
TAP	48	0	1
TAP	48	0	4
TAP	48	48	1
TAP	48	48	4
TAP	48	96	1
TAP	48	96	4
TAP	48	192	5
TAP	48	240	5
TAP	48	288	4
TAP	48	288	5
TAP	49	0	6
TAP	49	48	6
TAP	49	96	6
TAP	49	96	7
TAP	49	192	5
TAP	49	240	5
TAP	49	288	4
TAP	49	288	5
TAP	49	336	4
TAP	49	336	5
TAP	50	0	3
TAP	50	0	6
TAP	50	48	3
TAP	50	48	6
TAP	50	96	3
TAP	50	96	6
TAP	50	192	2
TAP	50	240	2
TAP	50	240	3
TAP	50	288	2
TAP	50	288	3
TAP	51	0	4
TAP	51	48	4
TAP	51	96	5
TAP	51	144	5
TAP	51	192	6
TAP	51	192	7
TAP	51	288	0
TAP	51	288	5
TAP	52	0	1
TAP	52	48	1
TAP	52	96	2
TAP	52	144	2
TAP	52	192	3
TAP	52	192	4
TAP	52	288	2
TAP	52	288	5
TAP	53	0	6
TAP	53	48	6
TAP	53	96	6
TAP	53	96	7
TAP	53	192	1
TAP	53	240	1
TAP	53	288	0
TAP	53	288	1
TAP	54	0	6
TAP	54	48	6
TAP	54	96	7
TAP	54	144	7
TAP	54	192	0
TAP	54	192	7
TAP	54	240	0
TAP	54	240	7
TAP	54	288	1
TAP	54	288	6
STR	55	0	5
SSR	55	0	5	96	288	1
STR	56	192	0
SSL	56	192	0	96	288	4
STR	58	0	5
SV_	58	0	5	96	192	0
TAP	59	0	1
TAP	59	96	1
TAP	59	192	2
TAP	59	288	3
TAP	60	0	4
TAP	60	96	5
TAP	60	192	6
TAP	60	288	0
TAP	60	288	7
HLD	61	0	0	192
HLD	61	0	7	192
TTP	62	0	6	B	0	L1
TTP	62	96	5	B	0	L1
TTP	62	192	4	B	0	L1
TTP	62	288	3	B	0	L1
TTP	63	0	2	B	0	L1
TTP	63	96	1	B	0	L1
TTP	63	192	0	B	0	L1
TTP	63	288	7	B	0	L1
TTP	64	0	0	C	1	L1
TTP	64	192	4	B	0	L1
TTP	64	288	5	B	0	L1
TTP	65	0	6	B	0	L1
TTP	65	96	7	B	0	L1
TTP	65	192	0	E	0	L1
TTP	65	288	1	E	0	L1
TTP	65	288	7	E	0	L1
TTP	66	0	1	B	0	L1
TTP	66	0	6	B	0	L1
TTP	66	96	2	B	0	L1
TTP	66	96	5	B	0	L1
TTP	66	192	3	E	0	L1
TTP	66	192	5	E	0	L1
XHO	67	0	6	288
XHO	67	288	7	288
HLD	68	192	0	288
TAP	69	96	1
HLD	70	0	2	288
HLD	70	288	3	288
HLD	71	192	4	288
TAP	72	96	5
TAP	72	192	4
TAP	72	192	5
BRK	72	288	3
BRK	72	288	6
TTP	73	96	6	B	0	L1
TTP	73	288	5	B	0	L1
TTP	74	96	5	E	0	L1
TTP	75	96	1	B	0	L1
TTP	75	288	2	B	0	L1
TTP	76	96	3	E	0	L1
STR	77	96	4
SI_	77	96	4	96	144	1
SI_	77	96	4	96	144	7
STR	78	96	0
SI_	78	96	0	96	144	3
SI_	78	96	0	96	144	5
HLD	79	96	3	96
HLD	79	96	5	96
HLD	79	288	2	96
HLD	79	288	4	96
TAP	80	96	3
TAP	80	96	5
TAP	80	192	2
TAP	80	192	6
TAP	80	288	1
TAP	80	288	7
XTP	81	96	6
TAP	81	144	6
TAP	81	192	6
TAP	81	192	7
TAP	81	240	6
TAP	81	240	7
TAP	81	288	0
TAP	81	288	5
TAP	81	336	0
TAP	81	336	5
TAP	82	0	0
TAP	82	0	5
TAP	82	96	1
TAP	82	144	1
TAP	82	192	0
TAP	82	192	1
TAP	82	240	0
TAP	82	240	1
TAP	82	288	2
TAP	82	288	7
TAP	82	336	2
TAP	82	336	7
TAP	83	0	2
TAP	83	0	7
XTP	83	96	3
TAP	83	144	3
TAP	83	192	2
TAP	83	192	3
TAP	83	240	2
TAP	83	240	3
TAP	83	288	1
TAP	83	288	4
TAP	83	336	1
TAP	83	336	4
TAP	84	0	1
TAP	84	0	4
TAP	84	96	5
TAP	84	144	5
TAP	84	192	4
TAP	84	192	5
TAP	84	240	4
TAP	84	240	5
TAP	84	288	3
TAP	84	288	6
TAP	84	336	3
TAP	84	336	6
TAP	85	0	3
TAP	85	0	6
TAP	85	96	2
TAP	85	144	2
TAP	85	192	1
TAP	85	192	3
TAP	85	288	5
TAP	85	336	5
TAP	86	0	4
TAP	86	0	6
TAP	86	96	2
TAP	86	144	2
TAP	86	192	2
TAP	86	192	3
TAP	86	288	5
TAP	86	336	5
TAP	87	0	4
TAP	87	0	5
TAP	87	96	6
TAP	87	144	6
TAP	87	192	6
TAP	87	192	7
TAP	87	288	1
TAP	87	336	1
TAP	88	0	0
TAP	88	0	1
TAP	88	96	6
TAP	88	144	6
TAP	88	192	7
TAP	88	240	7
TAP	88	288	0
TAP	88	288	7
TAP	88	336	0
TAP	88	336	7
TAP	89	0	1
TAP	89	0	6
TAP	89	96	5
TAP	89	144	5
TAP	89	192	4
TAP	89	240	4
TAP	89	288	3
TAP	89	336	3
TAP	90	0	2
TAP	90	48	2
TAP	90	96	1
TAP	90	144	0
TAP	90	192	7
TAP	90	240	6
TAP	90	288	5
TAP	90	336	4
XTP	91	0	3
XTP	91	0	5
STR	91	216	3
SCL	91	216	3	96	552	4
BRK	93	216	3
BRK	93	216	4

T_REC_TAP	310
T_REC_BRK	4
T_REC_XTP	27
T_REC_HLD	24
T_REC_XHO	8
T_REC_STR	9
T_REC_BST	0
T_REC_XST	1
T_REC_TTP	28
T_REC_THO	0
T_REC_SLD	12
T_REC_ALL	423
T_NUM_TAP	375
T_NUM_BRK	4
T_NUM_HLD	32
T_NUM_SLD	12
T_NUM_ALL	423
T_JUDGE_TAP	379
T_JUDGE_HLD	146
T_JUDGE_SLD	12
T_JUDGE_ALL	537
TTM_EACHPAIRS	103
TTM_SCR_TAP	187500
TTM_SCR_BRK	10400
TTM_SCR_HLD	32000
TTM_SCR_SLD	18000
TTM_SCR_ALL	247900
TTM_SCR_S	240100
TTM_SCR_SS	247500
TTM_RAT_ACV	10016

