VERSION	0.00.00	1.03.00
FES_MODE	0
BPM_DEF	140.000	140.000	140.000	140.000
MET_DEF	4	4
RESOLUTION	384
CLK_DEF	384
COMPATIBLE_CODE	MA2

BPM	0	0	140.000
MET	0	0	4	4
MET	18	0	4	3
MET	24	0	8	3
MET	24	144	8	4
MET	24	336	8	3
MET	25	240	8	6
MET	26	144	4	4
MET	42	144	8	5
MET	43	240	8	7
MET	44	192	8	4
MET	45	0	4	4
MET	55	0	4	6
MET	67	0	8	6
MET	72	96	4	4
MET	89	96	16	13
MET	90	24	4	4
MET	91	24	4	2
MET	91	216	4	4

XTP	2	0	0
TAP	3	0	0
TAP	4	0	7
TAP	5	0	7
HLD	6	0	0	384
HLD	8	0	7	384
TAP	10	0	0
TAP	11	0	1
TAP	12	0	2
TAP	13	0	3
TAP	14	0	4
TAP	15	0	5
TAP	16	0	6
TAP	17	0	0
TAP	17	0	7
XHO	18	0	0	288
XHO	18	0	7	288
XHO	19	192	6	288
XHO	19	192	7	288
XHO	21	0	0	288
XHO	21	0	1	288
XHO	22	192	0	288
XHO	22	192	7	288
THO	24	0	0	624	C	1	L1
XTP	26	144	0
TAP	26	336	0
TAP	27	144	0
TAP	28	144	1
TAP	28	336	1
TAP	29	144	1
TAP	30	144	2
TAP	30	336	2
TAP	31	144	2
TAP	32	144	3
TAP	32	336	3
TAP	33	144	3
TAP	33	144	4
TAP	34	144	4
TAP	34	336	4
TAP	35	144	4
TAP	36	144	5
TAP	36	336	5
TAP	37	144	5
TAP	38	144	6
TAP	38	336	6
TAP	39	144	6
TAP	40	144	7
TAP	40	336	7
BRK	41	144	0
BRK	41	144	7
XHO	42	144	0	240
XHO	42	144	1	240
XHO	43	240	6	240
XHO	43	240	7	240
TAP	45	0	0
TAP	45	96	0
TAP	45	192	7
XHO	45	288	0	144
XHO	45	288	7	144
TAP	47	96	0
TAP	47	192	0
TAP	47	288	0
TAP	48	0	0
TAP	48	96	1
TAP	48	192	1
TAP	48	288	1
TAP	49	96	2
TAP	49	192	2
TAP	49	288	2
TAP	50	0	2
TAP	50	96	3
TAP	50	96	4
TAP	50	192	3
TAP	50	192	4
TAP	50	288	3
TAP	50	288	4
TAP	51	96	5
TAP	51	192	5
TAP	51	288	5
TAP	52	0	5
TAP	52	96	6
TAP	52	192	6
TAP	52	288	6
TAP	53	96	7
TAP	53	192	7
TAP	53	288	7
TAP	54	0	0
TAP	54	0	7
TAP	54	96	0
TAP	54	96	7
TAP	54	192	0
TAP	54	192	7
STR	54	288	0
SI_	54	288	0	96	288	3
STR	54	288	7
SI_	54	288	7	96	288	4
TTP	57	0	6	B	0	L1
TTP	57	192	7	B	0	L1
TTP	58	0	0	B	0	L1
TTP	58	192	1	B	0	L1
TTP	59	0	2	B	0	L1
TTP	59	192	3	B	0	L1
TTP	60	0	4	B	0	L1
TTP	60	192	5	B	0	L1
XTP	61	0	6
XTP	61	0	7
TAP	61	192	6
TAP	61	192	7
TAP	62	0	5
TAP	62	96	5
TAP	62	192	4
TAP	62	192	5
TAP	63	0	3
TAP	63	96	3
TAP	63	192	2
TAP	63	192	3
TAP	64	0	1
TAP	64	96	1
TAP	64	192	0
TAP	64	192	1
TAP	65	0	7
TAP	65	96	7
TAP	65	192	0
TAP	65	192	7
TAP	66	0	0
TAP	66	0	7
TAP	66	96	0
TAP	66	96	7
HLD	66	192	1	192
HLD	66	192	6	192
HLD	68	192	3	288
HLD	68	192	4	288
TTP	70	0	3	B	0	L1
TTP	70	0	4	B	0	L1
TTP	70	192	2	B	0	L1
TTP	70	192	5	B	0	L1
TTP	71	0	1	B	0	L1
TTP	71	0	6	B	0	L1
THO	71	192	0	288	C	0	L1
STR	73	96	0
SI_	73	96	0	96	288	3
STR	75	96	7
SI_	75	96	7	96	288	4
XST	77	96	3
SI_	77	96	3	96	288	0
TAP	79	96	7
TAP	79	192	7
TAP	79	288	7
TAP	80	0	7
TAP	80	96	0
TAP	80	192	0
XTP	80	288	0
XTP	80	288	7
TAP	81	192	0
TAP	81	288	0
TAP	82	0	0
TAP	82	0	1
TAP	82	96	2
TAP	82	192	2
TAP	82	288	2
TAP	82	288	3
TAP	83	0	2
TAP	83	0	3
TAP	83	192	4
TAP	83	288	4
TAP	84	0	4
TAP	84	0	5
TAP	84	96	6
TAP	84	192	6
TAP	84	288	6
TAP	84	288	7
TAP	85	0	6
TAP	85	0	7
TAP	85	192	6
TAP	85	288	6
TAP	86	0	6
TAP	86	0	7
TAP	86	96	5
TAP	86	192	5
TAP	86	288	4
TAP	86	288	5
TAP	87	0	4
TAP	87	0	5
TAP	87	96	2
TAP	87	96	3
TAP	87	192	2
TAP	87	192	3
TAP	87	288	0
TAP	87	288	1
TAP	88	0	0
TAP	88	0	1
TAP	88	96	0
TAP	88	96	7
TAP	88	192	0
TAP	88	192	7
TAP	88	288	1
TAP	88	288	6
TAP	89	0	1
TAP	89	0	6
TAP	89	96	2
TAP	89	96	5
TAP	89	192	2
TAP	89	192	5
TAP	89	288	3
TAP	89	288	4
STR	90	0	3
SI_	90	0	3	96	264	0
STR	90	0	4
SI_	90	0	4	96	264	7
TTP	91	216	0	B	0	L1
TTP	91	216	0	C	1	L1
TTP	91	216	7	B	0	L1

T_REC_TAP	151
T_REC_BRK	2
T_REC_XTP	6
T_REC_HLD	6
T_REC_XHO	14
T_REC_STR	6
T_REC_BST	0
T_REC_XST	1
T_REC_TTP	17
T_REC_THO	2
T_REC_SLD	7
T_REC_ALL	212
T_NUM_TAP	181
T_NUM_BRK	2
T_NUM_HLD	22
T_NUM_SLD	7
T_NUM_ALL	212
T_JUDGE_TAP	183
T_JUDGE_HLD	129
T_JUDGE_SLD	7
T_JUDGE_ALL	319
TTM_EACHPAIRS	49
TTM_SCR_TAP	90500
TTM_SCR_BRK	5200
TTM_SCR_HLD	22000
TTM_SCR_SLD	10500
TTM_SCR_ALL	128200
TTM_SCR_S	124200
TTM_SCR_SS	128000
TTM_RAT_ACV	10015

