VERSION	0.00.00	1.03.00
FES_MODE	0
BPM_DEF	216.000	216.000	216.000	216.000
MET_DEF	4	4
RESOLUTION	384
CLK_DEF	384
COMPATIBLE_CODE	MA2

BPM	0	0	216.000
MET	0	0	4	4

TTP	1	288	3	E	0	M1
TTP	1	312	5	B	0	M1
TTP	1	336	1	B	0	M1
TTP	1	360	7	E	0	M1
HLD	2	0	0	192
TAP	2	144	7
HLD	2	192	7	192
TAP	2	336	6
HLD	3	0	6	192
TAP	3	144	5
TAP	3	192	5
TAP	3	336	2
HLD	4	0	2	192
TAP	4	144	1
HLD	4	192	1	192
TAP	4	336	0
HLD	5	0	0	192
TAP	5	144	7
TAP	5	192	7
TAP	5	336	1
HLD	6	0	1	192
TAP	6	144	2
HLD	6	192	2	192
TAP	6	336	3
HLD	7	0	3	192
TTP	7	144	6	E	0	M1
TTP	7	192	5	E	0	M1
TAP	7	336	6
HLD	8	0	6	192
TAP	8	144	5
HLD	8	192	5	192
TAP	8	336	4
HLD	9	0	4	192
TTP	9	144	2	E	0	M1
TTP	9	192	3	E	0	M1
STR	9	288	7
SCR	9	288	7	96	192	3
SSR	9	288	7	96	192	3
TAP	9	312	0
TAP	9	336	7
TAP	9	360	0
BRK	10	0	7
TAP	10	288	1
TAP	10	288	5
HLD	10	336	1	144
HLD	10	336	5	144
HLD	11	144	6	96
HLD	11	144	7	96
STR	11	288	0
SCL	11	288	0	96	192	4
SSL	11	288	0	96	192	4
BRK	12	0	0
TAP	12	288	2
TAP	12	288	6
HLD	12	336	2	144
HLD	12	336	6	144
TAP	13	144	3
TAP	13	144	4
STR	13	192	3
SI_	13	192	3	96	48	0
STR	13	192	4
SI_	13	192	4	96	48	7
BRK	14	0	1
BRK	14	0	6
STR	14	96	6
SI_	14	96	6	96	48	4
STR	14	192	0
SI_	14	192	0	96	48	2
STR	14	288	7
SI_	14	288	7	96	48	3
STR	15	0	0
SI_	15	0	0	96	48	4
STR	15	96	7
SI_	15	96	7	96	48	5
STR	15	192	1
SI_	15	192	1	96	48	3
TAP	15	288	0
TAP	16	0	1
TAP	16	48	1
TAP	16	96	6
TAP	16	144	6
TAP	16	192	0
TAP	16	216	7
TAP	16	240	0
TAP	16	264	7
TAP	16	288	0
TAP	16	312	7
TAP	16	336	0
TAP	16	360	7
XTP	17	48	1
XTP	17	48	5
XTP	17	96	2
XTP	17	96	6
XTP	17	144	3
XTP	17	144	7
BRK	17	192	0
BRK	17	192	4
TTP	17	336	5	B	0	M1
TTP	17	360	4	B	0	M1
TTP	18	0	4	E	0	M1
TTP	18	96	2	B	0	M1
TTP	18	96	3	B	0	M1
TTP	18	192	5	B	0	M1
TTP	18	192	6	E	0	M1
TTP	18	288	1	B	0	M1
TTP	18	288	2	E	0	M1
TTP	19	0	7	E	0	M1
TTP	19	48	7	B	0	M1
TTP	19	96	0	B	0	M1
TTP	19	144	1	E	0	M1
TTP	19	240	6	E	0	M1
TTP	19	288	0	C	0	M1
TTP	19	336	2	E	0	M1
TTP	20	0	3	B	0	M1
TTP	20	0	4	E	0	M1
TTP	20	96	4	B	0	M1
TTP	20	96	5	B	0	M1
TTP	20	192	2	B	0	M1
TTP	20	192	2	E	0	M1
TTP	20	288	6	B	0	M1
TTP	20	288	6	E	0	M1
TTP	21	0	1	E	0	M1
TTP	21	48	0	B	0	M1
TTP	21	96	7	B	0	M1
TTP	21	144	7	E	0	M1
TTP	21	240	2	E	0	M1
TTP	21	288	0	C	0	M1
TTP	21	336	6	E	0	M1
HLD	22	48	1	96
TAP	22	144	2
HLD	22	240	6	96
TAP	22	336	5
TAP	23	48	3
TAP	23	96	4
HLD	23	144	3	144
TAP	23	240	4
TAP	23	288	4
HLD	24	0	5	144
TAP	24	96	2
HLD	24	144	2	96
HLD	24	240	4	96
STR	24	336	3
SXL	24	336	3	96	192	3
SXR	24	336	3	96	192	3
TTP	25	336	2	B	0	M1
TTP	25	360	3	B	0	M1
TTP	26	0	4	E	0	M1
XTP	26	96	1
TTP	26	96	4	B	0	M1
TTP	26	96	5	B	0	M1
TTP	26	192	2	B	0	M1
TTP	26	192	2	E	0	M1
XTP	26	288	1
TTP	26	288	6	B	0	M1
TTP	26	288	6	E	0	M1
TTP	27	0	1	E	0	M1
TTP	27	48	0	B	0	M1
TTP	27	96	7	B	0	M1
TTP	27	144	7	E	0	M1
TTP	27	240	2	E	0	M1
TTP	27	288	0	C	0	M1
TTP	27	336	6	E	0	M1
TTP	28	0	4	B	0	M1
TTP	28	0	4	E	0	M1
TTP	28	96	2	B	0	M1
TTP	28	96	3	B	0	M1
XTP	28	96	6
TTP	28	192	5	B	0	M1
TTP	28	192	6	E	0	M1
TTP	28	288	1	B	0	M1
TTP	28	288	2	E	0	M1
XTP	28	288	6
TTP	29	0	7	E	0	M1
TTP	29	48	7	B	0	M1
TTP	29	96	0	B	0	M1
TTP	29	144	1	E	0	M1
TTP	29	240	6	E	0	M1
TTP	29	288	0	C	0	M1
TTP	29	336	2	E	0	M1
HLD	30	48	6	96
TAP	30	144	5
HLD	30	240	1	96
TAP	30	336	2
TAP	31	48	4
TAP	31	96	3
HLD	31	144	4	144
TAP	31	240	3
HLD	31	288	3	96
HLD	32	0	5	384
TTP	32	144	7	B	0	M1
TTP	32	168	0	C	0	M1
TTP	32	192	3	B	0	M1
TAP	33	0	0
TAP	33	24	1
TAP	33	48	2
TAP	33	72	3
TAP	33	96	0
TAP	33	120	1
TAP	33	144	2
TAP	33	168	3
TAP	33	192	7
TAP	33	216	6
TAP	33	240	5
TAP	33	264	4
TAP	33	288	7
TAP	33	312	6
TAP	33	336	5
TAP	33	360	4
XST	34	0	3
SI_	34	0	3	96	48	7
XST	34	192	3
SI_	34	192	3	96	48	0
SI_	34	192	3	96	48	6
XTP	35	0	5
TAP	35	48	4
TAP	35	96	6
TAP	35	144	4
TAP	35	168	4
TAP	35	192	5
TAP	35	240	4
TAP	35	288	3
BRK	35	288	7
XST	36	0	4
SI_	36	0	4	96	48	0
XST	36	192	4
SI_	36	192	4	96	48	1
SI_	36	192	4	96	48	7
XTP	37	0	2
TAP	37	48	3
TAP	37	96	1
TAP	37	144	3
TAP	37	168	3
TAP	37	192	2
TAP	37	240	3
BRK	37	288	0
TAP	37	288	4
XST	38	0	2
SI_	38	0	2	96	48	6
XST	38	192	2
SI_	38	192	2	96	48	5
SI_	38	192	2	96	48	7
XTP	39	0	6
TAP	39	48	7
TAP	39	96	5
TAP	39	144	7
TAP	39	168	7
TAP	39	192	6
TAP	39	240	7
TAP	39	288	0
BRK	39	288	4
XST	40	0	5
SI_	40	0	5	96	48	1
XST	40	192	5
SI_	40	192	5	96	48	0
SI_	40	192	5	96	48	2
XTP	41	0	1
TAP	41	48	0
TAP	41	96	2
TAP	41	144	0
BRK	41	192	3
BRK	41	192	7
BRK	41	240	1
BRK	41	240	5
TAP	41	336	3
TAP	41	360	4
STR	42	0	2
SI_	42	0	2	96	48	7
TAP	42	48	3
XTP	42	96	2
TAP	42	144	3
STR	42	192	4
SI_	42	192	4	96	48	7
TAP	42	240	3
XTP	42	288	4
TAP	43	0	2
TAP	43	24	4
TAP	43	48	1
TAP	43	72	5
TAP	43	96	0
TAP	43	120	6
TAP	43	144	1
TAP	43	168	7
TAP	43	192	2
TAP	43	216	6
TAP	43	240	3
TAP	43	264	5
BRK	43	288	4
STR	44	0	5
SI_	44	0	5	96	48	0
TAP	44	48	4
XTP	44	96	5
TAP	44	144	4
STR	44	192	3
SI_	44	192	3	96	48	0
TAP	44	240	4
XTP	44	288	3
TAP	45	0	5
TAP	45	24	3
TAP	45	48	6
TAP	45	72	2
TAP	45	96	7
TAP	45	120	1
TAP	45	144	6
TAP	45	168	0
TAP	45	192	5
TAP	45	216	1
TAP	45	240	4
TAP	45	264	2
BRK	45	288	3
STR	46	0	2
SI_	46	0	2	96	48	7
TAP	46	48	3
XTP	46	96	2
TAP	46	144	3
STR	46	192	4
SI_	46	192	4	96	48	7
TAP	46	240	3
XTP	46	288	4
TAP	47	0	2
TAP	47	24	4
TAP	47	48	1
TAP	47	72	5
TAP	47	96	0
TAP	47	120	6
TAP	47	144	1
TAP	47	168	7
TAP	47	192	2
TAP	47	216	6
TAP	47	240	3
TAP	47	264	5
BRK	47	288	4
TAP	48	0	5
TAP	48	48	5
TAP	48	96	4
TAP	48	96	6
TAP	48	144	4
TAP	48	144	6
TAP	48	192	2
TAP	48	240	2
TAP	48	288	1
TAP	48	288	3
TAP	48	336	1
TAP	48	336	3
TAP	49	0	0
TAP	49	24	7
TAP	49	48	0
TAP	49	72	7
TAP	49	96	1
TAP	49	96	6
TAP	49	144	1
TAP	49	144	6
TTP	49	192	2	E	0	M1
TTP	49	204	2	B	0	M1
TTP	49	216	3	B	0	M1
TTP	49	228	4	E	0	M1
TTP	49	240	6	E	0	M1
TTP	49	252	5	B	0	M1
TTP	49	264	4	B	0	M1
TTP	49	276	4	E	0	M1
THO	49	288	0	96	C	1	M1
BRK	50	0	7
TAP	53	192	1
TAP	53	192	6
XTP	53	240	7
XTP	53	256	6
XTP	53	272	5
XTP	53	288	4
XTP	53	336	0
XTP	53	352	1
XTP	53	368	2
XTP	54	0	3
TAP	54	96	6
TAP	54	144	4
TAP	54	144	5
STR	54	192	4
SCL	54	192	4	96	384	7
TAP	54	192	5
TTP	54	288	6	E	0	M1
TTP	55	0	4	B	0	M1
TTP	55	96	2	E	0	M1
TTP	55	192	3	B	0	M1
TTP	55	288	0	C	0	M1
TAP	56	0	5
HLD	56	48	5	96
TAP	56	96	6
HLD	56	144	6	96
TAP	56	192	1
HLD	56	240	1	96
TAP	56	288	2
TAP	56	336	2
TAP	57	0	0
TAP	57	48	0
TAP	57	96	1
TAP	57	96	7
TAP	57	144	1
TAP	57	144	7
TAP	57	192	2
TAP	57	192	6
TAP	57	240	2
TAP	57	240	6
BRK	57	288	3
BRK	57	288	5
XTP	58	0	0
XTP	58	0	4
TAP	58	96	1
TAP	58	144	2
TAP	58	144	3
TAP	58	192	2
STR	58	192	3
SCR	58	192	3	96	384	0
TTP	58	288	2	E	0	M1
TTP	59	0	3	B	0	M1
TTP	59	96	6	E	0	M1
TTP	59	192	4	B	0	M1
TTP	59	288	0	C	0	M1
TAP	60	0	2
HLD	60	48	2	96
TAP	60	96	1
HLD	60	144	1	96
TAP	60	192	6
HLD	60	240	6	96
TAP	60	288	5
TAP	60	336	5
TAP	61	0	3
TAP	61	24	4
TAP	61	48	3
TAP	61	72	4
TAP	61	96	3
TAP	61	120	4
TAP	61	144	3
TAP	61	168	4
TAP	61	192	1
TAP	61	216	6
TAP	61	240	1
TAP	61	264	6
STR	61	288	1
SI_	61	288	1	96	48	6
TAP	61	312	6
TAP	61	336	1
TAP	61	360	6
XTP	62	0	1
BRK	62	336	0
BRK	62	336	4
BRK	63	48	0
BRK	63	48	7
BRK	63	96	1
BRK	63	96	6
BRK	63	144	2
BRK	63	144	5
TTP	63	288	0	C	0	M1
STR	64	0	6
SI_	64	0	6	96	48	2
STR	64	48	2
SI_	64	48	2	96	48	7
TAP	64	96	6
TAP	64	144	0
TAP	64	240	3
STR	64	288	3
SI_	64	288	3	96	48	0
TAP	64	336	3
STR	65	0	7
SI_	65	0	7	96	48	2
STR	65	48	6
SI_	65	48	6	96	48	3
XTP	65	96	7
TAP	65	144	6
STR	65	240	1
SI_	65	240	1	96	48	4
TAP	65	288	0
TAP	65	336	7
STR	66	0	6
SI_	66	0	6	96	48	2
STR	66	48	2
SI_	66	48	2	96	48	7
TAP	66	96	6
STR	66	144	4
SXR	66	144	4	96	96	4
XST	66	240	4
SCR	66	240	4	96	192	3
TAP	66	240	6
TTP	66	336	0	C	1	M1
HLD	67	192	6	48
TAP	67	240	4
HLD	67	264	5	48
TAP	67	312	3
HLD	67	336	4	48
HLD	68	0	1	48
TAP	68	48	7
HLD	68	72	0	48
TAP	68	120	6
HLD	68	144	7	48
STR	68	192	5
SI_	68	192	5	96	48	1
STR	68	288	7
SI_	68	288	7	96	48	2
SI_	68	288	7	96	48	4
XTP	69	0	7
TAP	69	144	1
TAP	69	144	5
TAP	69	168	2
TAP	69	168	6
STR	69	192	3
SI_	69	192	3	96	48	0
STR	69	192	7
SI_	69	192	7	96	48	4
TAP	69	288	3
TAP	69	288	7
HLD	70	0	1	48
TAP	70	48	5
HLD	70	72	1	48
TAP	70	120	3
HLD	70	144	1	48
TAP	70	192	7
HLD	70	216	1	48
TAP	70	264	3
STR	70	288	0
SLR	70	288	0	96	48	4
STR	70	336	4
SLR	70	336	4	96	48	0
TAP	71	0	0
XTP	71	144	1
XTP	71	144	7
TAP	71	160	2
TAP	71	160	6
TAP	71	176	3
TAP	71	176	5
TAP	71	192	4
BRK	71	288	2
BRK	71	288	6
STR	72	0	1
SI_	72	0	1	96	48	5
STR	72	48	5
SI_	72	48	5	96	48	0
TAP	72	96	1
TAP	72	144	3
TAP	72	240	4
STR	72	288	4
SI_	72	288	4	96	48	7
TAP	72	336	4
STR	73	0	0
SI_	73	0	0	96	48	5
STR	73	48	1
SI_	73	48	1	96	48	4
XTP	73	96	0
TAP	73	144	1
TAP	73	240	7
STR	73	288	3
SCL	73	288	3	96	48	0
STR	73	288	7
SCL	73	288	7	96	48	4
TAP	74	0	3
TAP	74	0	7
TAP	74	144	1
TAP	74	144	5
TAP	74	168	2
TAP	74	168	6
TAP	74	192	3
STR	74	192	7
SXR	74	192	7	96	96	7
TAP	74	288	1
XST	74	288	7
SCR	74	288	7	96	144	6
TTP	75	0	0	C	1	M1
HLD	75	192	1	48
TAP	75	240	7
HLD	75	264	0	48
TAP	75	312	6
HLD	75	336	7	48
HLD	76	0	5	48
TAP	76	48	3
HLD	76	72	4	48
TAP	76	120	2
HLD	76	144	3	48
STR	76	192	0
SI_	76	192	0	96	48	4
STR	76	288	0
SI_	76	288	0	96	48	2
STR	76	288	7
SI_	76	288	7	96	48	2
STR	77	0	0
SI_	77	0	0	96	48	5
STR	77	0	7
SI_	77	0	7	96	48	5
STR	77	96	0
SI_	77	96	0	96	48	4
STR	77	96	7
SI_	77	96	7	96	48	3
BRK	77	192	0
BRK	77	192	7
XTP	77	288	2
XTP	77	288	5
HLD	78	0	6	48
TAP	78	48	2
HLD	78	72	6	48
TAP	78	120	4
HLD	78	144	6	48
TAP	78	192	0
HLD	78	216	6	48
TAP	78	264	4
STR	78	288	7
SI_	78	288	7	96	48	3
TAP	78	336	2
TAP	79	0	7
STR	79	96	1
SI_	79	96	1	96	48	4
STR	79	96	5
SI_	79	96	5	96	48	0
TAP	79	192	1
TAP	79	192	5
XST	79	288	2
SCL	79	288	2	96	384	3
XTP	79	288	6
TTP	80	0	0	C	1	M1
TAP	81	288	1
STR	81	288	5
SCR	81	288	5	96	384	4
TTP	82	0	0	C	1	M1
STR	83	192	6
SI_	83	192	6	96	24	2
SI_	83	192	6	96	24	2
STR	84	0	3
SI_	84	0	3	96	48	0
BRK	84	96	7
STR	84	192	6
SI_	84	192	6	96	48	4
TAP	84	240	7
TAP	84	288	6
TAP	84	336	0
STR	85	0	7
SI_	85	0	7	96	48	3
STR	85	48	1
SCL	85	48	1	96	48	6
TAP	85	96	7
TAP	85	144	1
XTP	85	240	4
XTP	85	240	5
TAP	85	288	3
TAP	85	288	6
TAP	85	336	2
TAP	85	336	7
STR	86	48	0
SI_	86	48	0	96	48	4
STR	86	96	7
SI_	86	96	7	96	48	5
STR	86	144	0
SI_	86	144	0	96	48	2
STR	86	192	7
SI_	86	192	7	96	48	3
STR	86	240	0
SCR	86	240	0	96	144	7
TAP	86	288	7
TAP	86	336	0
STR	87	192	1
SI_	87	192	1	96	48	6
STR	87	192	5
SI_	87	192	5	96	48	2
STR	88	0	0
SI_	88	0	0	96	48	3
STR	88	0	4
SI_	88	0	4	96	48	7
TAP	88	96	0
TAP	88	96	4
STR	88	192	2
SI_	88	192	2	96	48	7
STR	88	192	6
SI_	88	192	6	96	48	3
TAP	88	288	2
TAP	88	288	6
STR	89	0	1
SI_	89	0	1	96	48	4
STR	89	0	5
SI_	89	0	5	96	48	0
TAP	89	96	1
TAP	89	96	5
TAP	89	192	2
TAP	89	192	6
TAP	89	240	3
TAP	89	264	4
TAP	89	288	3
TAP	89	336	7
TAP	90	0	1
TAP	90	0	6
TAP	90	96	0
TAP	90	96	7
STR	90	192	6
SI_	90	192	6	96	48	3
STR	90	288	0
SI_	90	288	0	96	48	3
STR	91	0	5
SI_	91	0	5	96	48	0
STR	91	96	2
SI_	91	96	2	96	48	6
TAP	91	144	2
TAP	91	192	7
XTP	91	288	1
XTP	91	288	5
TAP	92	0	0
TAP	92	0	7
TAP	92	48	1
TAP	92	48	6
TAP	92	96	2
TAP	92	96	5
STR	92	192	1
SI_	92	192	1	96	48	3
STR	92	240	4
SI_	92	240	4	96	48	6
TAP	92	288	1
TAP	92	336	4
STR	93	0	0
SI_	93	0	0	96	48	3
STR	93	48	7
SI_	93	48	7	96	48	4
TAP	93	96	0
TAP	93	144	7
TAP	93	192	1
TAP	93	240	1
STR	93	288	7
SLL	93	288	7	96	48	3
STR	93	336	3
SLL	93	336	3	96	48	7
TAP	94	0	7
XTP	94	144	0
XTP	94	144	6
TAP	94	160	1
TAP	94	160	5
TAP	94	176	2
TAP	94	176	4
TAP	94	192	3
BRK	94	288	1
BRK	94	288	5
TAP	95	0	0
TAP	95	24	4
TAP	95	48	0
TAP	95	72	4
TAP	95	96	1
TAP	95	120	5
TAP	95	144	1
TAP	95	168	5
TAP	95	192	2
TAP	95	216	6
TAP	95	240	2
TAP	95	264	6
TAP	95	288	2
TAP	95	300	3
TAP	95	312	4
TAP	95	324	5
TAP	95	336	6
TAP	95	348	7
TAP	95	360	0
TAP	95	372	1
STR	96	0	2
SI_	96	0	2	96	576	6
SI_	96	0	2	96	576	6
BRK	96	0	6
TAP	98	0	0
TAP	98	0	4
TAP	98	24	5
TAP	98	48	6
TAP	98	72	7
TAP	98	96	2
TAP	98	120	3
TAP	98	144	4
TAP	98	168	5
TAP	98	192	0
TAP	98	216	1
TAP	98	240	2
TAP	98	264	3
TAP	98	288	6
TAP	98	312	7
TAP	98	336	0
TAP	98	360	1
HLD	99	0	4	48
TAP	99	48	0
TAP	99	64	7
TAP	99	80	6
HLD	99	96	4	48
TAP	99	144	0
TAP	99	160	1
TAP	99	176	2
HLD	99	192	7	48
TAP	99	240	5
TAP	99	256	4
TAP	99	272	3
HLD	99	288	7	48
TAP	99	336	1
TAP	99	352	2
TAP	99	368	3
BRK	100	0	7
HLD	103	288	4	96
HLD	104	0	2	720
TAP	104	48	3
TAP	104	96	4
TAP	104	144	5
TAP	104	240	3
TAP	104	288	4
TAP	104	336	5
TAP	105	48	4
TAP	105	96	5
TAP	105	144	6
TAP	105	240	4
TAP	105	288	5
HLD	105	336	6	480
TAP	106	48	4
TAP	106	96	3
TAP	106	144	2
TAP	106	240	4
TAP	106	288	3
TAP	106	336	2
TAP	107	48	3
TAP	107	96	2
TAP	107	144	1
TAP	107	192	0
TAP	107	240	7
TAP	107	288	1
TAP	107	336	6
TTP	108	0	0	C	0	M1
TTP	108	0	0	E	0	M1
TTP	108	0	1	B	0	M1
TTP	108	0	3	B	0	M1
TTP	108	0	4	B	0	M1
TTP	108	0	6	B	0	M1

T_REC_TAP	377
T_REC_BRK	36
T_REC_XTP	45
T_REC_HLD	62
T_REC_XHO	0
T_REC_STR	83
T_REC_BST	0
T_REC_XST	11
T_REC_TTP	102
T_REC_THO	1
T_REC_SLD	104
T_REC_ALL	821
T_NUM_TAP	618
T_NUM_BRK	36
T_NUM_HLD	63
T_NUM_SLD	104
T_NUM_ALL	821
T_JUDGE_TAP	654
T_JUDGE_HLD	160
T_JUDGE_SLD	104
T_JUDGE_ALL	918
TTM_EACHPAIRS	85
TTM_SCR_TAP	309000
TTM_SCR_BRK	93600
TTM_SCR_HLD	63000
TTM_SCR_SLD	156000
TTM_SCR_ALL	621600
TTM_SCR_S	599500
TTM_SCR_SS	618000
TTM_RAT_ACV	10058

