VERSION	0.00.00	1.03.00
FES_MODE	0
BPM_DEF	216.000	216.000	216.000	216.000
MET_DEF	4	4
RESOLUTION	384
CLK_DEF	384
COMPATIBLE_CODE	MA2

BPM	0	0	216.000
MET	0	0	4	4

HLD	2	0	5	384
HLD	3	0	4	384
HLD	4	0	3	384
HLD	5	0	2	576
HLD	6	0	5	576
HLD	7	0	4	576
HLD	8	0	3	576
HLD	9	0	2	192
XTP	9	288	2
XTP	9	288	3
XST	10	0	1
SI_	10	0	1	96	192	5
XTP	10	0	4
XTP	10	288	6
XHO	10	336	6	192
XTP	11	144	5
XTP	11	288	4
XTP	11	288	5
XTP	12	0	3
XST	12	0	6
SI_	12	0	6	96	192	2
XTP	12	288	1
XHO	12	336	1	288
XHO	13	144	2	96
XTP	13	288	1
XTP	13	288	2
TAP	14	0	2
TAP	14	96	2
TAP	14	96	3
TAP	14	192	4
TAP	14	288	3
TAP	14	288	5
TAP	15	0	6
TAP	15	96	4
TAP	15	96	5
TAP	15	192	3
TAP	15	288	2
TAP	15	288	4
TAP	16	0	5
TAP	16	48	5
TAP	16	96	1
TAP	16	144	1
TAP	16	192	6
TAP	16	240	6
TAP	16	288	0
TAP	16	336	0
BRK	17	48	1
BRK	17	48	7
BRK	17	96	1
BRK	17	96	7
BRK	17	144	1
BRK	17	144	7
BRK	17	192	1
BRK	17	192	7
TTP	18	0	2	B	0	M1
TTP	18	96	3	B	0	M1
TTP	18	192	4	B	0	M1
TTP	18	288	5	B	0	M1
TTP	19	0	0	E	0	M1
TTP	19	96	0	C	0	M1
TTP	19	192	4	E	0	M1
TTP	19	288	3	E	0	M1
TTP	20	0	2	E	0	M1
TTP	20	96	1	E	0	M1
TTP	20	192	0	E	0	M1
TTP	20	288	0	C	0	M1
TTP	21	0	2	E	0	M1
TTP	21	96	3	E	0	M1
TTP	21	192	4	E	0	M1
TTP	21	288	5	E	0	M1
TAP	22	0	6
TAP	22	96	6
TAP	22	192	5
TAP	22	288	4
TAP	22	288	5
TAP	23	0	3
TAP	23	96	2
TAP	23	192	2
HLD	23	192	4	192
TAP	23	288	2
TAP	24	0	3
TAP	24	96	3
TAP	24	96	4
STR	24	192	5
SCR	24	192	5	96	288	2
TAP	26	0	3
TAP	26	0	4
HLD	26	96	5	576
TAP	26	192	4
TAP	26	288	4
TAP	27	0	3
TAP	27	96	4
TAP	27	192	4
TAP	27	288	4
TAP	28	0	3
TAP	28	0	4
HLD	28	96	2	672
TAP	28	192	3
TAP	28	288	3
TAP	29	0	4
TAP	29	96	3
TAP	29	192	3
TAP	29	288	4
STR	30	0	5
SI_	30	0	5	96	96	2
TAP	30	192	1
TAP	30	288	1
STR	31	0	2
SI_	31	0	2	96	96	5
TAP	31	192	6
STR	31	288	6
SCR	31	288	6	96	288	3
TAP	33	0	4
TAP	33	48	4
TAP	33	96	3
TAP	33	192	2
TAP	33	192	5
HLD	34	0	2	192
TAP	34	0	3
TAP	34	96	1
HLD	34	192	3	192
TAP	34	288	0
TAP	35	0	2
TAP	35	96	1
TAP	35	144	1
TAP	35	192	2
TAP	35	192	3
TAP	35	288	3
TAP	35	288	4
TAP	36	0	4
HLD	36	0	5	192
TAP	36	96	6
HLD	36	192	4	192
TAP	36	288	7
TAP	37	0	5
TAP	37	96	6
TAP	37	144	6
TAP	37	192	4
TAP	37	192	5
TAP	37	288	3
TAP	37	288	4
HLD	38	0	2	192
TAP	38	0	3
TAP	38	96	0
HLD	38	192	3	192
TAP	38	288	0
TAP	39	0	2
TAP	39	96	1
TAP	39	144	1
TAP	39	192	2
TAP	39	192	3
TAP	39	288	1
TAP	39	288	4
TAP	40	0	4
HLD	40	0	5	192
TAP	40	96	7
HLD	40	192	4	192
TAP	40	288	7
TAP	41	0	5
TAP	41	96	3
TAP	41	96	5
BRK	41	192	1
BRK	41	192	7
BRK	41	240	1
BRK	41	240	7
HLD	42	0	0	96
TAP	42	0	6
TAP	42	96	3
TAP	42	192	1
HLD	42	192	7	96
TAP	42	288	4
TAP	43	0	6
TAP	43	48	6
TAP	43	96	4
TAP	43	144	4
TAP	43	192	5
TAP	43	288	2
TAP	43	288	4
TAP	44	0	1
HLD	44	0	7	96
TAP	44	96	4
HLD	44	192	0	96
TAP	44	192	6
TAP	44	288	3
TAP	45	0	1
TAP	45	48	1
TAP	45	96	3
TAP	45	144	3
TAP	45	192	2
TAP	45	288	4
TAP	45	288	6
HLD	46	0	3	96
TAP	46	0	5
TAP	46	96	0
TAP	46	192	2
HLD	46	192	4	96
TAP	46	288	7
TAP	47	0	6
TAP	47	48	6
TAP	47	96	4
TAP	47	144	4
TAP	47	192	4
TAP	47	192	5
TAP	47	288	1
TAP	47	288	3
TAP	48	0	2
TAP	48	0	7
TAP	48	48	2
TAP	48	48	7
TAP	48	96	2
TAP	48	96	7
TAP	48	192	0
TAP	48	192	5
TAP	48	240	0
TAP	48	240	5
TAP	48	288	0
TAP	48	288	5
TAP	49	0	1
TAP	49	0	6
TAP	49	48	1
TAP	49	48	6
TAP	49	96	1
TAP	49	96	6
TAP	49	144	1
TAP	49	144	6
TAP	49	192	1
TAP	49	192	6
BST	49	288	3
SCL	49	288	3	96	768	4
BRK	49	288	4
XTP	53	192	3
XTP	53	192	4
XTP	53	288	2
XTP	53	288	5
STR	54	0	0
SCR	54	0	0	96	192	5
BRK	54	0	7
TAP	54	192	6
TAP	54	288	6
TAP	55	0	0
STR	55	0	7
SCL	55	0	7	96	192	2
TAP	55	192	1
TAP	55	288	1
HLD	56	0	1	384
TTP	56	96	1	E	0	M1
TTP	56	192	2	E	0	M1
TTP	56	288	3	E	0	M1
TTP	57	0	4	E	0	M1
TTP	57	96	2	B	0	M1
TTP	57	96	5	B	0	M1
TAP	57	192	1
TAP	57	192	6
TAP	57	288	1
TAP	57	288	6
XTP	58	0	0
XST	58	0	7
SCL	58	0	7	96	192	2
TAP	58	192	1
TAP	58	288	1
XST	59	0	0
SCR	59	0	0	96	192	5
XTP	59	0	7
TAP	59	192	6
TAP	59	288	6
HLD	60	0	6	672
TTP	60	96	7	E	0	M1
TTP	60	192	6	E	0	M1
TTP	60	288	5	E	0	M1
TTP	61	0	4	E	0	M1
TTP	61	96	3	E	0	M1
TTP	61	192	2	E	0	M1
BST	61	288	1
SI_	61	288	1	96	48	6
XTP	62	336	3
XTP	62	336	4
XTP	63	48	2
XTP	63	48	5
XTP	63	96	2
XTP	63	96	5
XTP	63	144	2
XTP	63	144	5
BRK	63	240	0
BRK	63	240	7
BRK	63	288	0
BRK	63	288	7
STR	64	0	1
SI_	64	0	1	96	48	4
TAP	64	96	5
HLD	64	144	5	96
TAP	64	240	4
TAP	64	288	3
TAP	64	288	6
STR	65	0	7
SI_	65	0	7	96	48	3
TAP	65	96	2
HLD	65	144	2	96
TAP	65	240	3
TAP	65	288	1
TAP	65	288	4
TAP	66	0	3
TAP	66	0	6
TAP	66	96	4
TAP	66	96	5
STR	66	144	4
SI_	66	144	4	96	48	0
TAP	66	144	5
STR	66	240	7
SCR	66	240	7	96	240	5
BRK	66	336	1
XTP	67	144	0
XTP	67	192	0
XTP	67	288	1
XTP	67	288	7
HLD	68	0	1	72
TAP	68	72	0
TAP	68	144	2
TAP	68	144	7
TAP	68	192	2
TAP	68	192	7
TAP	68	288	0
TAP	68	288	6
TAP	69	0	5
HLD	69	0	6	96
TAP	69	96	4
TAP	69	192	1
TAP	69	192	3
TAP	69	240	1
TAP	69	240	3
TAP	69	288	1
TAP	69	288	3
XHO	70	0	2	72
XHO	70	72	3	72
XHO	70	144	4	72
XHO	70	216	5	72
XTP	70	288	6
STR	71	0	6
SI_	71	0	6	96	48	2
STR	71	0	7
SI_	71	0	7	96	48	3
BRK	71	192	0
BRK	71	192	5
STR	72	0	5
SI_	72	0	5	96	48	0
TAP	72	96	1
HLD	72	144	1	96
TAP	72	240	0
TAP	72	288	2
TAP	72	288	7
STR	73	0	3
SI_	73	0	3	96	48	7
TAP	73	96	6
HLD	73	144	6	96
TAP	73	240	7
TAP	73	288	0
TAP	73	288	5
STR	74	0	1
SI_	74	0	1	96	48	4
STR	74	96	5
SI_	74	96	5	96	48	1
STR	74	192	3
SI_	74	192	3	96	48	7
STR	74	288	6
SCL	74	288	6	96	192	1
BRK	75	0	0
XTP	75	288	0
XTP	75	288	7
HLD	76	0	1	72
HLD	76	72	2	72
TAP	76	144	3
TAP	76	192	3
TAP	76	288	3
TAP	76	288	4
BRK	77	0	5
BRK	77	0	6
BRK	77	96	1
BRK	77	96	2
BRK	77	192	3
BRK	77	192	7
XTP	77	288	6
XTP	77	336	6
XHO	78	0	6	72
XHO	78	72	5	72
XHO	78	144	4	72
XTP	78	216	3
XTP	78	288	2
XTP	78	288	3
STR	79	0	1
SI_	79	0	1	96	48	5
TAP	79	0	5
STR	79	96	4
SI_	79	96	4	96	48	0
TAP	79	192	3
BST	79	288	2
SCL	79	288	2	96	384	4
BRK	79	288	6
TTP	80	0	0	C	1	M1
TAP	81	192	3
STR	81	288	2
SCL	81	288	2	96	384	4
TAP	81	288	4
TTP	82	0	0	C	1	M1
XTP	83	192	2
XTP	83	192	5
STR	83	288	3
SI_	83	288	3	96	48	7
STR	83	288	4
SI_	83	288	4	96	48	0
BRK	84	96	1
BRK	84	96	6
TAP	84	192	1
TAP	84	192	6
TAP	84	288	5
TAP	84	336	5
TAP	85	0	4
HLD	85	48	6	96
TAP	85	144	7
TAP	85	240	0
TAP	85	240	5
TAP	85	336	1
TAP	85	336	6
TAP	86	48	5
TAP	86	96	4
TAP	86	144	6
TAP	86	192	2
TAP	86	240	3
TAP	86	288	1
STR	86	336	1
SI_	86	336	1	96	48	5
STR	87	48	6
SI_	87	48	6	96	48	2
TAP	87	144	2
XTP	87	240	0
XTP	87	240	3
BRK	87	288	0
BRK	87	288	3
HLD	88	0	1	72
TAP	88	72	0
TAP	88	144	2
TAP	88	144	7
HLD	88	192	6	72
TAP	88	264	7
TAP	88	336	0
TAP	88	336	5
HLD	89	0	1	72
TAP	89	72	3
TAP	89	144	3
TAP	89	144	4
STR	89	192	4
SI_	89	192	4	96	48	1
STR	89	192	5
SI_	89	192	5	96	48	0
XTP	90	0	2
XTP	90	0	7
TAP	90	96	4
TAP	90	96	5
TAP	90	192	1
TAP	90	192	2
TAP	90	288	6
TAP	90	288	7
STR	91	0	5
SI_	91	0	5	96	48	1
STR	91	0	6
SI_	91	0	6	96	48	2
BRK	91	192	0
BRK	91	192	3
TAP	92	0	2
TAP	92	0	3
TAP	92	48	2
TAP	92	48	3
STR	92	96	1
SI_	92	96	1	96	48	4
TAP	92	96	4
TAP	92	192	7
TAP	92	288	5
TAP	92	288	6
TAP	93	0	4
TAP	93	0	5
TAP	93	48	4
TAP	93	48	5
TAP	93	96	3
STR	93	96	6
SI_	93	96	6	96	48	3
TAP	93	192	0
TAP	93	288	1
TAP	93	288	2
TAP	94	0	0
TAP	94	0	1
TAP	94	48	0
TAP	94	48	1
TAP	94	96	2
TAP	94	96	7
TAP	94	192	6
TAP	94	192	7
TAP	94	240	6
TAP	94	240	7
TAP	94	288	0
TAP	94	288	5
TAP	95	0	4
TAP	95	48	4
TAP	95	96	3
TAP	95	144	3
XTP	95	192	4
XTP	95	216	3
XTP	95	240	4
XTP	95	264	3
XTP	95	288	4
TTP	96	0	0	C	1	M1
TTP	96	0	1	B	0	M1
TTP	96	0	6	B	0	M1
TAP	97	288	0
TAP	97	288	7
XTP	98	0	0
XTP	98	24	7
XTP	98	48	0
XTP	98	72	7
XTP	98	96	0
XTP	98	120	7
XTP	98	144	0
XTP	98	168	7
XTP	98	192	0
XTP	98	216	7
XTP	98	240	0
XTP	98	264	7
XTP	98	288	0
XTP	98	312	7
XTP	98	336	0
XTP	98	360	7
XTP	99	0	0
TAP	99	24	1
TAP	99	48	2
TAP	99	72	3
TAP	99	96	4
TAP	99	120	5
TAP	99	144	6
TAP	99	168	7
TAP	99	192	0
TAP	99	216	1
TAP	99	240	2
TAP	99	264	3
TAP	99	288	4
TAP	99	312	5
TAP	99	336	6
TAP	99	360	7
TTP	100	0	0	C	1	M1
TAP	103	288	3
TAP	103	288	4
HLD	104	0	3	288
HLD	104	0	4	672
HLD	105	0	5	672
HLD	106	0	6	672
HLD	107	0	5	384
BRK	108	0	7

T_REC_TAP	288
T_REC_BRK	36
T_REC_XTP	65
T_REC_HLD	44
T_REC_XHO	10
T_REC_STR	31
T_REC_BST	3
T_REC_XST	4
T_REC_TTP	34
T_REC_THO	0
T_REC_SLD	38
T_REC_ALL	553
T_NUM_TAP	422
T_NUM_BRK	39
T_NUM_HLD	54
T_NUM_SLD	38
T_NUM_ALL	553
T_JUDGE_TAP	461
T_JUDGE_HLD	278
T_JUDGE_SLD	38
T_JUDGE_ALL	777
TTM_EACHPAIRS	129
TTM_SCR_TAP	211000
TTM_SCR_BRK	101400
TTM_SCR_HLD	54000
TTM_SCR_SLD	57000
TTM_SCR_ALL	423400
TTM_SCR_S	406950
TTM_SCR_SS	419500
TTM_RAT_ACV	10092

