VERSION	0.00.00	1.03.00
FES_MODE	0
BPM_DEF	216.000	216.000	216.000	216.000
MET_DEF	4	4
RESOLUTION	384
CLK_DEF	384
COMPATIBLE_CODE	MA2

BPM	0	0	216.000
MET	0	0	4	4

HLD	2	0	6	384
HLD	3	0	7	384
HLD	4	0	0	384
TAP	5	0	1
TAP	5	192	2
TAP	5	192	3
HLD	6	0	2	384
HLD	7	0	3	384
HLD	8	0	4	384
TAP	9	0	5
TAP	9	192	4
TAP	9	192	5
XST	10	0	6
SI_	10	0	6	96	192	3
XTP	10	0	7
TAP	11	0	2
TAP	11	192	2
TAP	11	192	3
XTP	12	0	0
XST	12	0	1
SI_	12	0	1	96	192	4
TAP	13	0	5
TAP	13	192	4
TAP	13	192	5
TAP	14	0	6
TAP	14	96	6
TAP	14	192	6
TAP	14	192	7
TAP	15	0	1
TAP	15	96	1
TAP	15	192	0
TAP	15	192	1
TAP	16	0	2
TAP	16	48	2
TAP	16	96	2
TAP	16	192	3
TAP	16	240	3
TAP	16	288	3
XTP	17	0	3
XTP	17	0	4
XTP	17	96	2
XTP	17	96	5
BRK	17	192	1
BRK	17	192	6
TTP	18	0	3	E	0	L1
TTP	18	192	2	B	0	L1
TTP	19	0	1	B	0	L1
TTP	20	0	5	E	0	L1
TTP	20	192	5	B	0	L1
TTP	21	0	6	B	0	L1
TTP	22	0	3	B	0	L1
TTP	22	192	2	B	0	L1
TTP	23	0	1	B	0	L1
TTP	23	192	0	B	0	L1
TTP	24	0	7	B	0	L1
TTP	24	192	6	B	0	L1
TTP	25	0	0	C	0	L1
HLD	26	0	6	192
TAP	26	192	7
TAP	27	0	1
TAP	27	96	1
TAP	27	192	0
HLD	28	0	6	192
TAP	28	192	7
TAP	29	0	1
TAP	29	96	1
TAP	29	192	0
HLD	30	0	6	96
HLD	30	0	7	96
TAP	30	192	6
TAP	30	192	7
HLD	31	0	0	96
HLD	31	0	1	96
TAP	31	192	0
TAP	31	192	1
TAP	32	0	7
TAP	32	96	7
TAP	32	192	0
TAP	32	288	0
TAP	33	0	0
TAP	33	0	7
TAP	33	96	0
TAP	33	96	7
BRK	33	192	1
BRK	33	192	6
STR	34	0	5
SCR	34	0	5	96	192	0
TAP	35	0	1
TAP	35	96	1
TAP	35	192	0
TAP	35	192	1
STR	36	0	2
SCL	36	0	2	96	192	7
TAP	37	0	6
TAP	37	96	6
TAP	37	192	6
TAP	37	192	7
STR	38	0	6
SCL	38	0	6	96	192	3
TAP	39	0	2
TAP	39	96	2
TAP	39	192	2
TAP	39	192	3
STR	40	0	1
SCR	40	0	1	96	192	4
TAP	41	0	5
TAP	41	96	6
XTP	41	192	0
XTP	41	192	7
TAP	42	0	6
TAP	42	96	6
TAP	42	192	6
TAP	42	192	7
TAP	43	0	1
TAP	43	96	1
TAP	43	192	0
TAP	43	192	1
TAP	44	0	6
TAP	44	96	6
TAP	44	192	6
TAP	44	192	7
TAP	45	0	0
TAP	45	96	0
TAP	45	192	1
TAP	45	192	7
TAP	46	0	2
TAP	46	96	2
TAP	46	192	2
TAP	46	192	3
TAP	47	0	5
TAP	47	96	5
TAP	47	192	4
TAP	47	192	5
TAP	48	0	3
TAP	48	96	3
TAP	48	192	4
TAP	48	288	4
TAP	49	0	3
TAP	49	0	4
TAP	49	96	3
TAP	49	96	4
BRK	49	192	2
BRK	49	192	5
TTP	50	0	6	B	0	L1
TTP	50	0	7	B	0	L1
TTP	51	0	0	B	0	L1
TTP	51	0	1	B	0	L1
TTP	52	0	2	B	0	L1
TTP	52	0	3	B	0	L1
TTP	53	0	4	B	0	L1
TTP	53	0	5	B	0	L1
TAP	54	0	2
TAP	54	96	2
TAP	54	192	3
TAP	54	288	3
TAP	55	0	4
TAP	55	96	4
TAP	55	192	3
TAP	55	192	5
TAP	56	0	6
TAP	56	96	6
TAP	56	192	7
TAP	56	288	7
TAP	57	0	0
TAP	57	96	0
TAP	57	192	1
TAP	57	192	7
TAP	58	0	2
TAP	58	96	3
TAP	58	192	4
TAP	58	288	5
TAP	59	0	6
TAP	59	96	7
TAP	59	192	0
TAP	59	288	1
TAP	60	0	2
TAP	60	48	2
TAP	60	96	2
TAP	60	192	3
TAP	60	240	3
TAP	60	288	3
TAP	61	0	4
TAP	61	48	4
TAP	61	96	4
TAP	61	192	5
TAP	61	240	5
TAP	61	288	5
XHO	62	0	3	336
XHO	62	0	4	336
TAP	64	0	6
TAP	64	96	6
TAP	64	192	6
TAP	64	192	7
TAP	64	288	6
TAP	64	288	7
TAP	65	0	1
TAP	65	96	1
TAP	65	192	0
TAP	65	192	1
TAP	65	288	0
TAP	65	288	1
TAP	66	0	2
TAP	66	96	2
TAP	66	192	3
TAP	66	288	3
TAP	67	0	4
TAP	67	96	4
TAP	67	192	3
TAP	67	192	5
HLD	68	0	2	96
TAP	68	96	3
TAP	68	192	2
TAP	68	192	3
HLD	69	0	5	96
TAP	69	96	4
TAP	69	192	4
TAP	69	192	5
TAP	70	0	3
TAP	70	96	3
TAP	70	192	4
TAP	70	288	4
TAP	71	0	3
TAP	71	0	4
TAP	71	96	3
TAP	71	96	4
BRK	71	192	2
BRK	71	192	5
TAP	72	0	1
TAP	72	96	1
TAP	72	192	0
TAP	72	192	1
TAP	72	288	0
TAP	72	288	1
TAP	73	0	6
TAP	73	96	6
TAP	73	192	6
TAP	73	192	7
TAP	73	288	6
TAP	73	288	7
TAP	74	0	5
TAP	74	96	5
TAP	74	192	4
TAP	74	288	4
TAP	75	0	3
TAP	75	96	3
TAP	75	192	2
TAP	75	192	4
HLD	76	0	5	96
TAP	76	96	4
TAP	76	192	4
TAP	76	192	5
TAP	77	0	2
TAP	77	0	3
TAP	77	96	2
TAP	77	96	3
TAP	77	192	1
TAP	77	192	4
TAP	78	0	5
TAP	78	96	5
TAP	78	192	4
TAP	78	288	4
TAP	79	0	3
TAP	79	0	4
TAP	79	96	2
TAP	79	96	5
BRK	79	192	1
BRK	79	192	6
XST	80	0	2
SI_	80	0	2	96	192	7
TAP	81	0	6
TAP	81	192	6
TAP	81	192	7
XST	82	0	5
SI_	82	0	5	96	192	0
TAP	83	0	1
TAP	83	192	0
TAP	83	192	1
TAP	84	0	2
BRK	84	96	2
TAP	84	192	2
TAP	84	192	3
TAP	84	288	2
TAP	84	288	3
TAP	85	0	5
TAP	85	96	5
TAP	85	192	4
TAP	85	192	5
TAP	85	288	4
TAP	85	288	5
TAP	86	0	6
TAP	86	96	6
TAP	86	192	7
TAP	86	288	7
TAP	87	0	0
TAP	87	96	0
TAP	87	192	1
TAP	87	192	7
HLD	88	0	6	96
TAP	88	96	7
TAP	88	192	6
TAP	88	192	7
HLD	89	0	1	96
TAP	89	96	0
TAP	89	192	0
TAP	89	192	1
TAP	90	0	6
TAP	90	96	6
TAP	90	192	7
TAP	90	288	7
TAP	91	0	0
TAP	91	96	0
TAP	91	192	1
TAP	91	192	7
TAP	92	0	2
TAP	92	96	2
TAP	92	192	1
TAP	92	288	1
TAP	93	0	0
TAP	93	96	0
TAP	93	192	7
TAP	93	288	7
TAP	94	0	6
TAP	94	96	6
TAP	94	192	5
TAP	94	288	5
TAP	95	0	3
TAP	95	0	4
TAP	95	96	2
TAP	95	96	5
BRK	95	192	1
BRK	95	192	6
TTP	96	0	5	E	0	L1
TTP	97	0	3	E	0	L1
TAP	98	0	3
TAP	98	0	4
TAP	98	48	3
TAP	98	48	4
TAP	98	96	3
TAP	98	96	4
TAP	98	192	2
TAP	98	192	5
TAP	98	240	2
TAP	98	240	5
TAP	98	288	2
TAP	98	288	5
TAP	99	0	1
TAP	99	0	6
TAP	99	48	1
TAP	99	48	6
TAP	99	96	1
TAP	99	96	6
TAP	99	192	0
TAP	99	192	7
TAP	99	240	0
TAP	99	240	7
TAP	99	288	0
TAP	99	288	7
TTP	100	0	0	C	1	L1
HLD	104	0	5	384
HLD	105	0	4	384
HLD	106	0	3	384
STR	107	0	2
SSR	107	0	2	96	432	6

T_REC_TAP	278
T_REC_BRK	13
T_REC_XTP	8
T_REC_HLD	20
T_REC_XHO	2
T_REC_STR	5
T_REC_BST	0
T_REC_XST	4
T_REC_TTP	24
T_REC_THO	0
T_REC_SLD	9
T_REC_ALL	363
T_NUM_TAP	319
T_NUM_BRK	13
T_NUM_HLD	22
T_NUM_SLD	9
T_NUM_ALL	363
T_JUDGE_TAP	332
T_JUDGE_HLD	112
T_JUDGE_SLD	9
T_JUDGE_ALL	453
TTM_EACHPAIRS	81
TTM_SCR_TAP	159500
TTM_SCR_BRK	33800
TTM_SCR_HLD	22000
TTM_SCR_SLD	13500
TTM_SCR_ALL	228800
TTM_SCR_S	220700
TTM_SCR_SS	227500
TTM_RAT_ACV	10057

