VERSION	0.00.00	1.03.00
FES_MODE	0
BPM_DEF	216.000	216.000	216.000	216.000
MET_DEF	4	4
RESOLUTION	384
CLK_DEF	384
COMPATIBLE_CODE	MA2

BPM	0	0	216.000
MET	0	0	4	4

TAP	2	0	0
TAP	4	0	0
TAP	6	0	7
TAP	8	0	7
XHO	10	0	0	384
XHO	10	0	1	384
XHO	12	0	6	384
XHO	12	0	7	384
TAP	14	0	0
TAP	15	0	1
TAP	16	0	2
XTP	17	0	3
XTP	17	0	4
TTP	18	0	4	B	0	L1
TTP	19	0	3	B	0	L1
TTP	20	0	5	B	0	L1
TTP	21	0	2	B	0	L1
TTP	22	0	6	B	0	L1
TTP	23	0	1	B	0	L1
TTP	24	0	7	B	0	L1
TTP	25	0	0	C	0	L1
TAP	26	0	7
TAP	27	0	6
TAP	28	0	5
TAP	29	0	3
TAP	29	0	4
TAP	30	0	3
TAP	31	0	2
TAP	32	0	1
TAP	33	0	0
TAP	33	0	7
STR	34	0	0
SI_	34	0	0	96	288	3
STR	36	0	7
SI_	36	0	7	96	288	4
STR	38	0	0
SI_	38	0	0	96	288	4
STR	40	0	7
SI_	40	0	7	96	288	3
TAP	42	0	0
TAP	42	192	0
TAP	43	0	0
TAP	43	0	1
TAP	44	0	2
TAP	44	192	2
TAP	45	0	2
TAP	45	0	3
TAP	46	0	4
TAP	46	192	4
TAP	47	0	4
TAP	47	0	5
TAP	48	0	6
TAP	48	192	6
XTP	49	0	6
XTP	49	0	7
TTP	50	0	6	B	0	L1
TTP	50	0	7	B	0	L1
TTP	51	0	4	B	0	L1
TTP	51	0	5	B	0	L1
TTP	52	0	2	B	0	L1
TTP	52	0	3	B	0	L1
TTP	53	0	0	B	0	L1
TTP	53	0	1	B	0	L1
TAP	54	0	7
TAP	54	192	7
TAP	55	0	6
TAP	55	0	7
TAP	56	0	0
TAP	56	192	0
TAP	57	0	0
TAP	57	0	1
TAP	58	0	7
TAP	58	192	7
TAP	59	0	0
TAP	59	192	0
HLD	60	0	0	384
HLD	60	0	7	384
BRK	62	0	0
BRK	62	0	7
TAP	64	0	0
TAP	64	96	0
TAP	64	192	0
TAP	65	0	1
TAP	65	192	1
TAP	66	0	2
TAP	66	96	2
TAP	66	192	2
TAP	67	0	3
TAP	67	0	4
TAP	67	192	3
TAP	67	192	4
TAP	68	0	4
TAP	68	96	4
TAP	68	192	4
TAP	69	0	5
TAP	69	192	5
TAP	70	0	6
TAP	70	96	6
TAP	70	192	6
TAP	71	0	0
TAP	71	0	7
TAP	71	192	0
TAP	71	192	7
TAP	72	0	7
TAP	72	96	7
TAP	72	192	7
TAP	73	0	6
TAP	73	96	6
TAP	73	192	6
TAP	74	0	5
TAP	74	96	5
TAP	74	192	5
TAP	75	0	3
TAP	75	0	4
TAP	75	192	3
TAP	75	192	4
TAP	76	0	3
TAP	76	96	3
TAP	76	192	3
TAP	77	0	2
TAP	77	96	2
TAP	77	192	2
TAP	78	0	1
TAP	78	96	1
TAP	78	192	1
TAP	79	0	0
TAP	79	0	7
XHO	80	0	6	384
XHO	80	0	7	384
XHO	82	0	0	384
XHO	82	0	1	384
TAP	84	0	0
TAP	84	96	0
TAP	84	192	0
TAP	85	0	1
TAP	85	192	0
TAP	85	192	1
TAP	86	0	7
TAP	86	96	7
TAP	86	192	7
TAP	87	0	6
TAP	87	192	6
TAP	87	192	7
TAP	88	0	0
TAP	88	96	0
TAP	88	192	1
TAP	88	288	1
TAP	89	0	2
TAP	89	192	2
TAP	89	192	3
TAP	90	0	4
TAP	90	96	4
TAP	90	192	5
TAP	90	288	5
TAP	91	0	6
TAP	91	192	6
TAP	91	192	7
TAP	92	0	7
TAP	92	96	7
TAP	92	192	6
TAP	92	288	6
TAP	93	0	5
TAP	93	96	5
TAP	93	192	4
TAP	93	192	5
TAP	94	0	3
TAP	94	96	3
TAP	94	192	2
TAP	94	288	2
TAP	95	0	1
TAP	95	96	1
XTP	95	192	0
XTP	95	192	1
HLD	96	0	0	384
HLD	96	0	7	384
TAP	98	0	0
TAP	98	0	7
TAP	98	96	0
TAP	98	96	7
TAP	98	192	1
TAP	98	192	6
TAP	98	288	1
TAP	98	288	6
TAP	99	0	2
TAP	99	0	5
TAP	99	96	2
TAP	99	96	5
TAP	99	192	3
TAP	99	192	4
TAP	99	288	3
TAP	99	288	4
XHO	100	0	3	1152
XHO	100	0	4	1152
TTP	104	0	3	B	0	L1
TTP	104	0	4	B	0	L1
TTP	105	0	2	B	0	L1
TTP	105	0	5	B	0	L1
TTP	106	0	1	B	0	L1
TTP	106	0	6	B	0	L1
THO	107	0	0	384	C	0	L1

T_REC_TAP	147
T_REC_BRK	2
T_REC_XTP	6
T_REC_HLD	4
T_REC_XHO	10
T_REC_STR	4
T_REC_BST	0
T_REC_XST	0
T_REC_TTP	22
T_REC_THO	1
T_REC_SLD	4
T_REC_ALL	200
T_NUM_TAP	179
T_NUM_BRK	2
T_NUM_HLD	15
T_NUM_SLD	4
T_NUM_ALL	200
T_JUDGE_TAP	181
T_JUDGE_HLD	152
T_JUDGE_SLD	4
T_JUDGE_ALL	337
TTM_EACHPAIRS	38
TTM_SCR_TAP	89500
TTM_SCR_BRK	5200
TTM_SCR_HLD	15000
TTM_SCR_SLD	6000
TTM_SCR_ALL	115700
TTM_SCR_S	112050
TTM_SCR_SS	115500
TTM_RAT_ACV	10017

