VERSION	0.00.00	1.03.00
FES_MODE	0
BPM_DEF	180.000	180.000	180.000	180.000
MET_DEF	4	4
RESOLUTION	384
CLK_DEF	384
COMPATIBLE_CODE	MA2

BPM	0	0	180.000
MET	0	0	4	4

TAP	1	0	4
TAP	1	0	5
TAP	1	96	3
TAP	1	96	6
TAP	1	192	4
TAP	1	240	3
TAP	1	288	2
HLD	1	336	1	336
TAP	1	336	4
TAP	2	192	3
TAP	2	288	3
TAP	3	0	1
TAP	3	0	4
TTP	3	48	3	E	0	M1
TTP	3	96	4	E	0	M1
TTP	3	144	5	E	0	M1
THO	3	192	0	96	C	0	M1
TTP	3	336	6	B	0	M1
TTP	3	336	7	E	0	M1
TTP	4	48	1	B	0	M1
TTP	4	48	1	E	0	M1
HLD	4	144	7	144
TAP	4	240	0
TAP	4	288	0
TAP	5	0	0
TAP	5	0	6
TAP	5	96	1
TAP	5	96	5
TAP	5	192	2
TAP	5	192	4
TAP	5	288	2
TAP	5	336	3
TAP	6	48	3
TAP	6	96	2
TAP	6	192	1
HLD	6	192	4	768
TAP	6	288	0
TTP	7	0	0	C	0	M1
TAP	8	0	5
TAP	8	96	5
TAP	8	192	5
TAP	8	288	3
TAP	8	288	6
TAP	9	0	1
TAP	9	48	1
TAP	9	96	5
TAP	9	144	4
TAP	9	192	0
TAP	9	192	1
STR	9	240	0
SI_	9	240	0	96	48	3
TAP	9	240	7
TAP	9	336	3
TAP	10	48	7
TAP	10	96	2
TAP	10	144	3
TAP	10	192	6
TAP	10	192	7
TAP	10	240	0
STR	10	240	7
SI_	10	240	7	96	48	4
TAP	10	336	4
TAP	11	48	0
TAP	11	96	5
TAP	11	144	4
TAP	11	192	0
TAP	11	192	1
STR	11	240	7
SI_	11	240	7	96	48	4
TAP	11	288	0
STR	11	336	7
SI_	11	336	7	96	48	2
STR	12	48	7
SCL	12	48	7	96	48	4
STR	12	144	7
SCR	12	144	7	96	48	2
BRK	12	240	0
TAP	13	0	4
TAP	13	0	6
TAP	13	48	7
TAP	13	96	2
TAP	13	144	3
TAP	13	192	6
TAP	13	192	7
TAP	13	240	0
STR	13	240	7
SI_	13	240	7	96	48	4
TAP	13	336	4
TAP	14	48	0
TAP	14	96	5
TAP	14	144	4
TAP	14	192	0
TAP	14	192	1
TAP	14	240	0
TAP	14	240	7
TAP	14	336	2
TAP	14	360	3
TAP	15	0	2
TAP	15	48	1
TAP	15	48	4
TAP	15	144	6
TAP	15	192	4
TAP	15	192	5
TAP	15	288	1
TAP	15	288	3
TAP	15	336	1
TAP	15	336	3
TAP	16	48	0
TAP	16	48	7
TAP	16	96	1
TAP	16	96	6
STR	16	192	5
SCR	16	192	5	96	96	0
STR	16	288	0
SCL	16	288	0	96	96	5
TAP	17	0	1
TAP	17	144	3
HLD	17	192	3	144
TAP	17	288	2
STR	17	336	2
SI_	17	336	2	96	48	7
STR	18	240	1
SCR	18	240	1	96	48	4
TAP	18	336	1
TAP	19	48	0
STR	19	96	0
SI_	19	96	0	96	72	3
STR	19	192	7
SI_	19	192	7	96	72	4
STR	19	288	1
SI_	19	288	1	96	72	4
STR	20	0	6
SI_	20	0	6	96	72	3
STR	20	96	0
SUR	20	96	0	96	144	7
HLD	20	336	0	240
TAP	21	144	1
STR	21	192	1
SI_	21	192	1	96	48	6
TAP	21	288	5
STR	21	336	5
SI_	21	336	5	96	48	0
STR	22	240	6
SCL	22	240	6	96	48	3
TAP	22	336	6
TAP	23	48	7
STR	23	96	7
SI_	23	96	7	96	72	4
STR	23	192	0
SI_	23	192	0	96	72	3
STR	23	288	6
SI_	23	288	6	96	72	3
STR	24	0	1
SSR	24	0	1	96	144	5
TAP	24	288	1
TAP	24	288	6
TAP	25	0	3
TAP	25	0	4
STR	25	96	4
SI_	25	96	4	96	96	2
TTP	25	192	6	B	0	M1
TTP	25	288	7	E	0	M1
TAP	26	0	4
STR	26	96	4
SI_	26	96	4	96	96	2
TTP	26	192	6	B	0	M1
TTP	26	288	7	E	0	M1
TAP	27	0	4
STR	27	96	4
SXR	27	96	4	96	96	2
TTP	27	192	6	B	0	M1
TTP	27	192	7	E	0	M1
TAP	28	0	4
TAP	28	48	3
TAP	28	48	5
TAP	28	144	3
TAP	28	192	2
TAP	28	192	4
STR	28	288	1
SCL	28	288	1	96	96	6
TAP	29	0	3
STR	29	96	3
SI_	29	96	3	96	96	5
TTP	29	192	1	B	0	M1
TTP	29	288	1	E	0	M1
TAP	30	0	3
STR	30	96	3
SI_	30	96	3	96	96	5
TTP	30	192	1	B	0	M1
TTP	30	288	1	E	0	M1
TAP	31	0	3
STR	31	96	3
SXL	31	96	3	96	96	5
TTP	31	192	1	B	0	M1
TTP	31	192	1	E	0	M1
TAP	32	0	3
TAP	32	48	2
TAP	32	48	4
TAP	32	144	4
TAP	32	192	3
TAP	32	192	5
TAP	32	288	1
TAP	32	288	7
TAP	33	0	2
TAP	33	0	6
TAP	33	96	2
TAP	33	96	3
TAP	33	144	3
TAP	33	192	1
TAP	33	192	3
TAP	33	240	3
TAP	33	288	0
TAP	33	288	3
TAP	34	0	1
TAP	34	0	5
TAP	34	96	4
TAP	34	96	5
TAP	34	144	4
TAP	34	192	4
TAP	34	192	6
TAP	34	240	4
TAP	34	288	4
TAP	34	288	7
TAP	35	0	1
TAP	35	0	5
TAP	35	96	1
TAP	35	120	0
TAP	35	144	2
TAP	35	144	7
TAP	35	240	0
TAP	35	240	4
STR	35	288	0
SF_	35	288	0	96	48	4
TAP	35	288	4
BRK	36	0	0
STR	36	192	1
SI_	36	192	1	96	48	6
STR	36	192	5
SI_	36	192	5	96	48	2
STR	37	0	0
SI_	37	0	0	96	48	4
HLD	37	96	3	96
STR	37	192	5
SI_	37	192	5	96	48	1
STR	37	288	6
SCR	37	288	6	96	48	1
HLD	38	0	2	96
STR	38	96	3
SI_	38	96	3	96	48	6
STR	38	192	0
SI_	38	192	0	96	48	5
TAP	38	288	7
STR	39	0	6
SCL	39	0	6	96	48	3
STR	39	96	6
SCR	39	96	6	96	48	1
STR	39	192	6
SI_	39	192	6	96	48	3
STR	39	288	6
SLR	39	288	6	96	72	2
TAP	40	0	6
STR	40	96	4
SI_	40	96	4	96	48	0
SI_	40	96	4	96	48	7
TAP	40	192	4
TAP	40	288	2
TAP	40	288	6
HLD	41	0	1	72
TAP	41	0	7
TAP	41	72	3
TAP	41	96	2
TAP	41	144	1
TAP	41	144	4
STR	41	192	0
SI_	41	192	0	96	48	4
TAP	41	192	5
TAP	41	288	7
STR	42	0	2
SCL	42	0	2	96	96	7
STR	42	96	7
SCL	42	96	7	96	96	4
STR	42	192	4
SCL	42	192	4	96	96	1
STR	42	288	0
SI_	42	288	0	96	48	6
STR	43	0	0
SI_	43	0	0	96	48	5
STR	43	96	0
SI_	43	96	0	96	48	2
STR	43	192	0
SI_	43	192	0	96	48	3
STR	43	288	0
SSR	43	288	0	96	96	4
TAP	44	192	5
TAP	44	216	4
TAP	44	264	2
TAP	44	288	3
TAP	44	336	4
TAP	44	336	5
TAP	45	0	6
STR	45	0	7
SI_	45	0	7	96	48	3
HLD	45	96	0	96
STR	45	192	2
SI_	45	192	2	96	48	6
STR	45	288	1
SCL	45	288	1	96	48	6
HLD	46	0	5	96
STR	46	96	4
SI_	46	96	4	96	48	1
STR	46	192	7
SI_	46	192	7	96	48	2
TAP	46	288	0
STR	47	0	1
SCR	47	0	1	96	48	4
STR	47	96	1
SCL	47	96	1	96	48	6
STR	47	192	1
SI_	47	192	1	96	48	4
STR	47	288	1
SLL	47	288	1	96	96	5
TAP	48	0	1
STR	48	96	1
SXR	48	96	1	96	144	2
HLD	48	192	3	96
TAP	49	0	5
TAP	49	48	4
TAP	49	48	6
TAP	49	144	1
TAP	49	144	5
STR	49	192	0
SCR	49	192	0	96	48	3
STR	49	192	4
SCR	49	192	4	96	48	7
STR	49	288	0
SI_	49	288	0	96	48	5
STR	49	288	4
SI_	49	288	4	96	48	1
STR	50	288	0
SI_	50	288	0	96	576	3
TAP	50	288	7
TAP	51	0	0
STR	51	0	7
SI_	51	0	7	96	576	4
STR	52	288	7
SCL	52	288	7	96	672	0
TAP	53	0	7
HLD	54	96	7	768
STR	55	0	1
SI_	55	0	1	96	288	6
STR	56	96	5
SCL	56	96	5	96	384	2
HLD	57	0	5	288
TAP	57	336	1
TAP	57	336	5
TAP	57	360	2
TAP	57	360	6
BRK	58	0	3
BRK	58	0	7
TAP	58	96	2
TAP	58	128	3
TAP	58	160	1
TAP	58	192	5
TAP	58	224	4
TAP	58	256	6
TAP	58	288	1
TAP	58	320	3
TAP	58	352	2
STR	59	0	7
SI_	59	0	7	96	288	2
TAP	59	96	7
TAP	59	192	0
TAP	59	288	0
STR	60	0	1
SI_	60	0	1	96	288	4
TAP	60	96	1
TAP	60	192	2
TAP	60	288	2
TAP	61	0	3
TAP	61	96	3
TAP	61	192	2
TAP	61	192	4
TAP	61	288	5
TAP	61	320	4
TAP	61	352	5
HLD	62	0	2	64
TAP	62	64	4
TAP	62	96	3
TAP	62	128	5
TAP	62	160	4
STR	62	192	5
SCL	62	192	5	96	96	2
STR	63	0	0
SI_	63	0	0	96	288	5
TAP	63	96	0
TAP	63	192	7
TAP	63	288	7
STR	64	0	6
SI_	64	0	6	96	288	3
TAP	64	96	6
TAP	64	192	5
TAP	64	288	5
STR	65	0	4
SI_	65	0	4	96	288	7
TAP	65	96	4
TAP	65	192	3
TAP	65	288	3
TAP	66	0	1
TAP	66	32	0
TAP	66	64	1
TAP	66	96	6
TAP	66	128	7
TAP	66	160	6
TAP	66	192	4
TAP	66	224	5
TAP	66	256	4
TAP	66	288	3
TAP	66	320	2
TAP	66	352	3
BST	67	0	0
SCR	67	0	0	96	576	3
BRK	68	192	0
TAP	69	0	2
HLD	69	0	4	576
TAP	70	0	5
TAP	70	96	5
TAP	70	192	5
TAP	70	288	4
TAP	70	312	4
TAP	70	336	4
TAP	70	360	4
TAP	71	0	5
TAP	71	48	3
TAP	71	96	6
TAP	71	144	1
TAP	71	168	0
TAP	71	192	1
TAP	71	240	0
STR	71	240	7
SI_	71	240	7	96	48	4
TAP	71	336	4
TAP	72	48	5
TAP	72	96	3
TAP	72	144	6
TAP	72	168	7
TAP	72	192	6
STR	72	240	0
SI_	72	240	0	96	48	3
TAP	72	240	7
TAP	72	336	3
TAP	73	48	2
TAP	73	96	4
TAP	73	144	1
TAP	73	168	0
TAP	73	192	1
STR	73	240	7
SI_	73	240	7	96	48	4
TAP	73	288	0
STR	73	336	7
SI_	73	336	7	96	48	2
STR	74	48	7
SCL	74	48	7	96	48	4
STR	74	144	7
SCR	74	144	7	96	48	2
BRK	74	240	0
TAP	75	0	2
TAP	75	0	6
TAP	75	48	5
TAP	75	96	4
TAP	75	144	6
TAP	75	168	7
TAP	75	192	6
STR	75	240	0
SI_	75	240	0	96	48	3
TAP	75	240	7
TAP	75	336	3
TAP	76	48	2
TAP	76	96	4
TAP	76	144	1
TAP	76	168	0
TAP	76	192	1
TAP	76	240	0
TAP	76	240	7
TAP	76	336	2
TAP	76	360	3
TAP	77	0	2
TAP	77	48	1
TAP	77	48	4
TAP	77	144	6
TAP	77	192	4
TAP	77	192	5
TAP	77	288	0
TAP	77	288	4
TAP	77	336	1
TAP	77	336	5
TAP	78	48	3
TAP	78	48	7
TAP	78	96	1
TAP	78	96	5
STR	79	0	2
SCR	79	0	2	96	288	5
STR	80	0	2
SCR	80	0	2	96	288	5
STR	81	0	2
SCR	81	0	2	96	288	5
STR	82	0	7
SI_	82	0	7	96	48	4
TAP	82	96	0
TAP	82	96	7
TAP	82	192	0
TAP	82	216	7
TAP	82	240	6
TAP	82	264	5
TAP	82	288	4
TAP	82	312	3
TAP	82	336	2
TAP	82	360	1
STR	83	0	0
SI_	83	0	0	96	48	3
SI_	83	0	0	96	48	5
TAP	83	0	7
BRK	83	96	0
TAP	83	192	2
STR	83	192	7
SI_	83	192	7	96	48	3
TAP	83	288	0
STR	84	0	5
SCR	84	0	5	96	96	0
STR	84	96	0
SCR	84	96	0	96	96	3
STR	84	192	3
SCR	84	192	3	96	96	6
STR	84	288	7
SI_	84	288	7	96	48	1
STR	85	0	7
SI_	85	0	7	96	48	2
STR	85	96	7
SI_	85	96	7	96	48	5
STR	85	192	7
SI_	85	192	7	96	48	4
STR	85	288	7
SSL	85	288	7	96	96	3
TAP	86	192	5
TAP	86	216	4
TAP	86	240	5
TAP	86	288	1
TAP	86	312	3
TAP	86	336	1
TAP	86	360	3
STR	87	0	0
SI_	87	0	0	96	48	5
HLD	87	96	7	96
STR	87	192	4
SI_	87	192	4	96	48	0
STR	87	288	5
SCR	87	288	5	96	48	0
HLD	88	0	1	96
STR	88	96	2
SI_	88	96	2	96	48	6
STR	88	192	0
SI_	88	192	0	96	48	4
TAP	88	288	7
STR	89	0	6
SCL	89	0	6	96	48	3
STR	89	96	6
SCR	89	96	6	96	48	1
STR	89	192	6
SI_	89	192	6	96	48	3
STR	89	288	6
SLR	89	288	6	96	96	2
TAP	90	0	6
STR	90	96	6
SXL	90	96	6	96	144	5
HLD	90	192	4	96
TAP	91	0	2
TAP	91	48	1
TAP	91	48	3
TAP	91	144	2
TAP	91	144	6
STR	91	192	3
SCL	91	192	3	96	48	0
STR	91	192	7
SCL	91	192	7	96	48	4
STR	91	288	3
SI_	91	288	3	96	48	6
STR	91	288	7
SI_	91	288	7	96	48	2
TAP	92	192	0
TAP	92	216	7
TAP	92	240	1
TAP	92	264	6
TAP	92	288	0
TAP	92	312	7
TAP	92	336	1
TAP	92	360	6
STR	93	0	0
SCL	93	0	0	96	48	5
STR	93	144	3
SCL	93	144	3	96	48	0
STR	93	288	6
SCL	93	288	6	96	288	3
TAP	94	192	6
TAP	94	288	6
STR	95	0	7
SCR	95	0	7	96	48	2
STR	95	144	4
SCR	95	144	4	96	48	7
STR	95	288	1
SI_	95	288	1	96	192	4
TAP	96	192	5
TAP	96	240	5
TAP	96	288	3
TAP	96	312	4
TAP	96	336	3
TAP	96	360	4
STR	97	0	2
SCR	97	0	2	96	48	5
TAP	97	96	2
STR	97	144	7
SCR	97	144	7	96	48	2
TAP	97	240	7
STR	97	288	4
SCR	97	288	4	96	288	7
TAP	98	192	4
TAP	98	288	4
STR	99	0	3
SCR	99	0	3	96	48	6
TAP	99	96	3
STR	99	144	0
SCR	99	144	0	96	48	3
TAP	99	240	0
STR	99	288	6
SCR	99	288	6	96	288	1
TAP	100	192	6
TAP	100	288	7
BST	101	0	0
SUL	101	0	0	96	1056	5

T_REC_TAP	337
T_REC_BRK	7
T_REC_XTP	0
T_REC_HLD	18
T_REC_XHO	0
T_REC_STR	124
T_REC_BST	2
T_REC_XST	0
T_REC_TTP	20
T_REC_THO	1
T_REC_SLD	128
T_REC_ALL	637
T_NUM_TAP	481
T_NUM_BRK	9
T_NUM_HLD	19
T_NUM_SLD	128
T_NUM_ALL	637
T_JUDGE_TAP	490
T_JUDGE_HLD	90
T_JUDGE_SLD	128
T_JUDGE_ALL	708
TTM_EACHPAIRS	80
TTM_SCR_TAP	240500
TTM_SCR_BRK	23400
TTM_SCR_HLD	19000
TTM_SCR_SLD	192000
TTM_SCR_ALL	474900
TTM_SCR_S	459800
TTM_SCR_SS	474000
TTM_RAT_ACV	10018

