VERSION	0.00.00	1.03.00
FES_MODE	0
BPM_DEF	180.000	180.000	180.000	180.000
MET_DEF	4	4
RESOLUTION	384
CLK_DEF	384
COMPATIBLE_CODE	MA2

BPM	0	0	180.000
MET	0	0	4	4

TAP	1	0	3
TAP	1	0	4
HLD	1	96	5	96
HLD	1	192	2	96
XTP	1	288	4
XST	1	336	4
SUR	1	336	4	96	240	3
TAP	3	0	1
TAP	3	96	3
TAP	3	192	5
TAP	3	240	5
TTP	3	336	3	B	0	M1
TTP	3	336	4	B	0	M1
TTP	4	48	2	B	0	M1
TTP	4	48	5	B	0	M1
TTP	4	144	1	B	0	M1
TTP	4	144	6	B	0	M1
TAP	4	240	0
TAP	4	288	0
STR	5	0	7
SCL	5	0	7	96	144	4
XST	5	336	2
SCR	5	336	2	96	192	5
TTP	7	0	0	C	0	M1
TAP	8	0	4
TAP	8	96	4
TAP	8	192	3
TAP	8	288	2
TAP	8	288	5
HLD	9	0	1	96
HLD	9	96	0	96
HLD	9	192	7	96
TAP	9	288	5
HLD	9	336	5	96
TAP	10	48	6
HLD	10	96	6	96
HLD	10	192	7	96
TAP	10	288	1
HLD	10	336	1	96
TAP	11	48	0
HLD	11	96	0	96
HLD	11	192	7	96
TAP	11	288	6
TAP	11	336	6
TAP	12	48	4
TAP	12	48	5
TAP	12	144	2
TAP	12	144	3
BRK	12	240	1
BRK	12	240	4
HLD	13	0	5	96
HLD	13	96	7	96
HLD	13	192	0	96
TAP	13	288	2
HLD	13	336	2	96
TAP	14	48	1
HLD	14	96	1	96
HLD	14	192	0	96
TAP	14	288	7
TAP	15	0	4
TAP	15	0	6
TAP	15	48	4
TAP	15	48	6
TAP	15	144	1
TAP	15	144	3
TAP	15	192	1
TAP	15	192	3
TAP	15	288	2
TAP	15	288	6
TAP	15	336	2
TAP	15	336	6
TAP	16	48	1
TAP	16	48	5
TAP	16	96	1
TAP	16	96	5
TAP	16	192	0
TAP	16	192	7
TAP	16	288	2
STR	16	288	5
SCL	16	288	5	96	96	2
HLD	17	0	1	288
TAP	17	288	3
STR	17	336	3
SXL	17	336	3	96	144	3
HLD	18	240	0	96
TAP	18	336	4
TAP	19	48	6
STR	19	96	6
SI_	19	96	6	96	48	4
TAP	19	288	1
STR	19	336	1
SXL	19	336	1	96	144	2
XST	20	240	6
SUL	20	240	6	96	96	2
TAP	21	144	0
HLD	21	192	0	96
TAP	21	288	4
STR	21	336	4
SV_	21	336	4	96	96	7
STR	22	240	3
SI_	22	240	3	96	48	1
TAP	23	48	4
TAP	23	96	4
STR	23	192	3
SI_	23	192	3	96	48	1
TAP	23	192	5
STR	24	0	4
SI_	24	0	4	96	96	1
TAP	24	0	6
TAP	24	192	6
TAP	24	288	2
TAP	24	288	5
TAP	25	0	3
HLD	25	0	4	192
TTP	25	192	5	B	0	M1
TTP	25	192	5	E	0	M1
TAP	26	0	3
HLD	26	0	4	192
TTP	26	192	6	B	0	M1
TTP	26	192	6	E	0	M1
TAP	27	0	3
HLD	27	0	4	192
TTP	27	192	5	E	0	M1
TTP	27	192	6	E	0	M1
TAP	28	0	3
HLD	28	0	4	192
TTP	28	192	0	E	0	M1
TTP	28	192	7	B	0	M1
TTP	28	192	7	E	0	M1
HLD	29	0	3	192
TAP	29	0	4
TTP	29	192	0	B	0	M1
TTP	29	192	1	B	0	M1
HLD	30	0	3	192
TAP	30	0	4
TTP	30	192	0	E	0	M1
TTP	30	192	1	E	0	M1
HLD	31	0	3	192
TAP	31	0	4
TTP	31	192	1	B	0	M1
TTP	31	192	2	B	0	M1
TTP	31	192	2	E	0	M1
HLD	32	0	3	192
TAP	32	0	4
BRK	32	192	7
TAP	32	288	1
TAP	32	288	6
TAP	33	0	2
HLD	33	0	5	96
TAP	33	96	3
TAP	33	144	3
TAP	33	192	4
TAP	33	240	4
TAP	33	288	2
TAP	33	336	2
TAP	34	0	5
TAP	34	48	5
TAP	34	96	3
TAP	34	144	3
TAP	34	192	4
TAP	34	240	4
TAP	34	288	3
HLD	34	288	5	96
TAP	35	0	2
TAP	35	96	1
TAP	35	96	3
TAP	35	144	1
TAP	35	144	3
TAP	35	240	4
TAP	35	240	6
TAP	35	288	4
STR	35	288	6
SCL	35	288	6	96	192	1
TTP	36	0	0	C	1	M1
BRK	36	192	0
TAP	37	0	0
HLD	37	0	1	288
TAP	37	96	3
TAP	37	192	3
TAP	37	288	0
TAP	38	0	6
TAP	38	0	7
TAP	38	96	3
TAP	38	96	5
TAP	38	192	0
TAP	38	192	1
TAP	38	288	2
TAP	38	288	4
TAP	39	0	3
TAP	39	0	5
TAP	39	96	0
TAP	39	96	6
TAP	39	192	2
TAP	39	192	4
TAP	39	288	1
TAP	39	288	7
BRK	40	0	3
BRK	40	0	5
TAP	40	192	2
STR	40	192	7
SI_	40	192	7	96	48	3
STR	41	0	1
SI_	41	0	1	96	48	5
STR	41	192	7
SCR	41	192	7	96	48	2
STR	42	0	3
SI_	42	0	3	96	48	7
STR	42	192	6
SI_	42	192	6	96	48	2
TAP	43	0	0
TAP	43	96	2
TAP	43	144	3
TAP	43	192	1
TAP	43	288	5
TAP	43	336	4
TAP	44	0	7
TAP	44	96	1
TAP	44	96	6
TAP	44	192	3
TAP	44	192	4
BRK	44	288	2
BRK	44	288	5
HLD	45	0	6	288
TAP	45	0	7
TAP	45	96	4
TAP	45	192	4
TAP	45	288	7
TAP	46	0	0
TAP	46	0	1
TAP	46	96	2
TAP	46	96	4
TAP	46	192	6
TAP	46	192	7
TAP	46	288	3
TAP	46	288	5
TAP	47	0	2
TAP	47	0	4
TAP	47	96	1
TAP	47	96	7
TAP	47	192	3
TAP	47	192	5
TAP	47	288	0
TAP	47	288	6
BRK	48	0	2
BRK	48	0	4
TAP	48	192	3
HLD	48	192	5	192
TAP	48	288	4
TAP	49	0	7
TAP	49	48	7
TAP	49	96	7
TAP	49	144	7
TAP	49	192	7
TAP	49	240	7
STR	49	288	7
SCL	49	288	7	96	192	1
STR	50	288	0
SUR	50	288	0	96	480	0
TAP	50	288	7
XST	52	288	7
SUR	52	288	7	96	480	7
HLD	54	96	0	288
XST	55	0	6
SI_	55	0	6	96	288	1
XST	56	96	2
SCR	56	96	2	96	384	5
HLD	57	0	7	384
BRK	58	0	0
TAP	58	96	3
TAP	58	96	4
TAP	58	192	2
TAP	58	192	5
TAP	58	288	1
TAP	58	288	6
TAP	59	0	0
HLD	59	0	7	144
TAP	59	144	5
HLD	59	192	5	144
TAP	59	336	6
HLD	60	0	6	144
TAP	60	144	7
HLD	60	192	7	144
TAP	60	336	4
HLD	61	0	4	144
TAP	61	144	5
STR	61	192	5
SCR	61	192	5	96	288	4
TAP	62	336	0
HLD	63	0	0	144
TAP	63	144	2
HLD	63	192	2	144
TAP	63	336	1
HLD	64	0	1	144
TAP	64	144	3
HLD	64	192	3	144
TAP	64	336	2
HLD	65	0	2	144
TAP	65	144	1
STR	65	192	1
SCR	65	192	1	96	288	0
STR	67	0	0
SI_	67	0	0	96	480	4
STR	67	0	7
SSL	67	0	7	96	480	3
TAP	69	0	3
HLD	69	0	4	384
TAP	70	0	3
TAP	70	96	3
TAP	70	192	4
TAP	70	288	2
TAP	70	288	5
HLD	71	0	6	96
HLD	71	96	7	96
HLD	71	192	0	96
TAP	71	288	2
HLD	71	336	2	96
TAP	72	48	1
HLD	72	96	1	96
HLD	72	192	0	96
TAP	72	288	6
HLD	72	336	6	96
TAP	73	48	7
HLD	73	96	7	96
HLD	73	192	0	96
TAP	73	288	1
TAP	73	336	1
TAP	74	48	2
TAP	74	48	3
TAP	74	144	4
TAP	74	144	5
BRK	74	240	3
BRK	74	240	6
HLD	75	0	2	96
HLD	75	96	0	96
HLD	75	192	7	96
TAP	75	288	5
HLD	75	336	5	96
TAP	76	48	6
HLD	76	96	6	96
HLD	76	192	7	96
TAP	76	288	0
TAP	77	0	1
TAP	77	0	3
TAP	77	48	1
TAP	77	48	3
TAP	77	144	4
TAP	77	144	6
TAP	77	192	4
TAP	77	192	6
TAP	77	288	1
TAP	77	288	5
TAP	77	336	1
TAP	77	336	5
TAP	78	48	2
TAP	78	48	6
TAP	78	96	2
TAP	78	96	6
BRK	78	192	7
STR	79	0	0
SCR	79	0	0	96	288	4
STR	80	0	0
SCR	80	0	0	96	288	4
STR	81	0	0
SCR	81	0	0	96	288	4
BRK	82	0	0
TAP	82	192	2
TAP	82	192	5
TAP	82	288	0
TAP	82	288	7
TAP	83	0	3
TAP	83	0	4
BRK	83	96	1
BRK	83	96	6
TAP	83	192	2
STR	83	192	5
SI_	83	192	5	96	48	1
STR	84	0	3
SI_	84	0	3	96	48	7
STR	84	192	6
SUL	84	192	6	96	48	1
TAP	85	0	0
TAP	85	96	2
TAP	85	144	3
TAP	85	192	1
TAP	85	288	5
TAP	85	336	4
TAP	86	0	7
TAP	86	96	1
TAP	86	96	6
TAP	86	192	3
TAP	86	192	4
TAP	86	288	2
TAP	86	288	5
HLD	87	0	6	288
TAP	87	0	7
TAP	87	96	4
TAP	87	192	4
TAP	87	288	7
TAP	88	0	0
TAP	88	0	1
TAP	88	96	2
TAP	88	96	4
TAP	88	192	6
TAP	88	192	7
TAP	88	288	3
TAP	88	288	5
TAP	89	0	2
TAP	89	0	4
TAP	89	96	1
TAP	89	96	7
TAP	89	192	3
TAP	89	192	5
TAP	89	288	0
TAP	89	288	6
BRK	90	0	2
BRK	90	0	4
TAP	90	192	3
HLD	90	192	5	192
TAP	90	288	4
TAP	91	0	7
TAP	91	48	7
TAP	91	96	7
TAP	91	144	7
TAP	91	192	7
TAP	91	240	7
STR	91	288	7
SCL	91	288	7	96	192	1
BRK	92	192	0
HLD	93	0	2	96
TAP	93	0	3
TAP	93	96	0
HLD	93	144	0	96
TAP	93	240	7
STR	93	288	7
SUL	93	288	7	96	288	4
HLD	95	0	2	96
TAP	95	0	3
TAP	95	96	0
HLD	95	144	0	96
TAP	95	240	7
STR	95	288	7
SXL	95	288	7	96	288	4
TAP	97	0	4
HLD	97	0	5	96
TAP	97	96	7
HLD	97	144	7	96
TAP	97	240	0
STR	97	288	0
SUR	97	288	0	96	288	3
TAP	99	0	4
HLD	99	0	5	96
TAP	99	96	7
HLD	99	144	7	96
TAP	99	240	0
STR	99	288	0
SXR	99	288	0	96	288	3
BRK	101	0	0
BST	101	0	7
SUR	101	0	7	96	1056	2

T_REC_TAP	264
T_REC_BRK	21
T_REC_XTP	1
T_REC_HLD	71
T_REC_XHO	0
T_REC_STR	32
T_REC_BST	1
T_REC_XST	6
T_REC_TTP	24
T_REC_THO	0
T_REC_SLD	39
T_REC_ALL	459
T_NUM_TAP	327
T_NUM_BRK	22
T_NUM_HLD	71
T_NUM_SLD	39
T_NUM_ALL	459
T_JUDGE_TAP	349
T_JUDGE_HLD	204
T_JUDGE_SLD	39
T_JUDGE_ALL	592
TTM_EACHPAIRS	101
TTM_SCR_TAP	163500
TTM_SCR_BRK	57200
TTM_SCR_HLD	71000
TTM_SCR_SLD	58500
TTM_SCR_ALL	350200
TTM_SCR_S	337600
TTM_SCR_SS	348000
TTM_RAT_ACV	10063

