VERSION	0.00.00	1.03.00
FES_MODE	0
BPM_DEF	180.000	180.000	180.000	180.000
MET_DEF	4	4
RESOLUTION	384
CLK_DEF	384
COMPATIBLE_CODE	MA2

BPM	0	0	180.000
MET	0	0	4	4

STR	1	0	0
SCR	1	0	0	96	432	5
STR	3	0	6
SUL	3	0	6	96	192	2
STR	4	0	1
SUR	4	0	1	96	192	5
HLD	5	0	6	192
HLD	6	0	0	192
HLD	6	0	1	192
XST	7	0	0
SXL	7	0	0	96	480	3
XST	7	0	7
SXR	7	0	7	96	480	4
TAP	9	0	2
TAP	9	96	2
TAP	9	192	3
TAP	9	288	3
TAP	10	0	4
TAP	10	96	4
TAP	10	192	3
TAP	10	192	5
TAP	11	0	6
TAP	11	96	6
TAP	11	192	7
TAP	11	288	7
XTP	12	0	0
XTP	12	0	7
XTP	12	96	0
XTP	12	96	7
XTP	12	192	1
XTP	12	192	6
TAP	13	0	5
TAP	13	96	5
TAP	13	192	4
TAP	13	288	4
TAP	14	0	3
TAP	14	96	3
TAP	14	192	2
TAP	14	192	4
TAP	15	0	1
TAP	15	96	0
TAP	15	192	2
TAP	15	192	7
TAP	15	288	6
TAP	16	0	7
TAP	16	96	0
TAP	16	96	5
BRK	16	192	1
BRK	16	192	6
HLD	17	0	6	192
TAP	17	192	7
HLD	18	0	1	192
TAP	18	192	0
TAP	19	0	6
TAP	19	96	6
TAP	19	192	6
TAP	19	192	7
TAP	20	0	0
TAP	20	96	0
TAP	20	192	1
TAP	20	192	7
HLD	21	0	2	192
TAP	21	192	3
HLD	22	0	5	192
TAP	22	192	4
TAP	23	0	2
TAP	23	96	2
TAP	23	192	2
TAP	23	192	3
TAP	24	0	4
TAP	24	96	3
TAP	24	192	2
TAP	24	192	5
STR	25	0	6
SCL	25	0	6	96	192	3
STR	26	0	2
SCL	26	0	2	96	192	7
STR	27	0	6
SXR	27	0	6	96	480	3
STR	29	0	2
SCL	29	0	2	96	192	7
STR	30	0	6
SCL	30	0	6	96	192	3
STR	31	0	2
SXR	31	0	2	96	480	7
HLD	33	0	6	96
HLD	33	0	7	96
TAP	33	192	6
TAP	33	192	7
HLD	34	0	0	96
HLD	34	0	1	96
TAP	34	192	0
TAP	34	192	1
TAP	35	0	7
TAP	35	96	7
TAP	35	192	0
TAP	35	288	0
TAP	35	288	7
BRK	36	0	1
BRK	36	0	6
TAP	37	0	5
TAP	37	96	5
TAP	37	192	4
TAP	37	192	5
TAP	37	288	4
TAP	37	288	5
TAP	38	0	2
TAP	38	96	2
TAP	38	192	2
TAP	38	192	3
TAP	38	288	2
TAP	38	288	3
TAP	39	0	1
TAP	39	96	1
TAP	39	192	0
TAP	39	288	0
TAP	40	0	7
TAP	40	96	7
TAP	40	192	0
TAP	40	192	6
TAP	41	0	4
STR	41	0	5
SCR	41	0	5	96	192	0
TAP	42	0	1
TAP	42	96	1
TAP	42	192	0
TAP	42	192	1
TAP	43	0	6
TAP	43	96	7
TAP	43	192	1
TAP	43	288	0
TAP	44	0	0
TAP	44	0	7
TAP	44	96	0
TAP	44	96	7
TAP	44	192	1
TAP	44	192	6
TAP	45	0	2
TAP	45	96	2
TAP	45	192	2
TAP	45	192	3
TAP	45	288	2
TAP	45	288	3
TAP	46	0	5
TAP	46	96	5
TAP	46	192	4
TAP	46	192	5
TAP	46	288	4
TAP	46	288	5
TAP	47	0	6
TAP	47	96	6
TAP	47	192	7
TAP	47	288	7
TAP	48	0	0
TAP	48	96	0
TAP	48	192	1
TAP	48	192	7
STR	49	0	2
SCL	49	0	2	96	192	7
TAP	49	0	3
STR	50	0	6
SCL	50	0	6	96	192	3
STR	51	0	2
SCL	51	0	2	96	576	3
STR	55	0	6
SSR	55	0	6	96	384	2
TAP	56	192	1
STR	57	0	0
SSL	57	0	0	96	384	4
HLD	59	0	5	192
HLD	59	192	4	192
HLD	60	0	3	192
TAP	60	192	2
STR	61	0	1
SCR	61	0	1	96	192	4
TAP	62	0	5
TAP	62	192	3
TAP	62	192	4
HLD	63	0	2	192
HLD	63	192	3	192
HLD	64	0	4	192
TAP	64	192	5
STR	65	0	6
SCL	65	0	6	96	192	3
TAP	66	0	2
TAP	66	192	2
TAP	66	192	3
STR	67	0	0
SCR	67	0	0	96	336	5
XTP	68	192	6
STR	69	0	7
SCL	69	0	7	96	336	2
XTP	70	192	1
XTP	70	192	7
TAP	71	0	6
TAP	71	96	6
TAP	71	192	7
TAP	71	288	7
TAP	72	0	0
TAP	72	96	0
TAP	72	192	1
TAP	72	192	7
TAP	73	0	2
TAP	73	96	2
TAP	73	192	3
TAP	73	288	3
XTP	74	0	3
XTP	74	0	4
XTP	74	96	3
XTP	74	96	4
XTP	74	192	2
XTP	74	192	5
TAP	75	0	1
TAP	75	96	1
TAP	75	192	0
TAP	75	288	0
TAP	76	0	7
TAP	76	96	7
TAP	76	192	0
TAP	76	192	6
TAP	77	0	5
TAP	77	96	4
TAP	77	192	3
TAP	77	192	6
TAP	77	288	2
TAP	78	0	3
XTP	78	96	1
XTP	78	96	4
TTP	79	0	2	B	0	L1
TTP	79	0	5	B	0	L1
TTP	80	0	1	B	0	L1
TTP	80	0	6	B	0	L1
TTP	81	0	1	E	0	L1
TTP	81	0	7	E	0	L1
TTP	82	0	0	C	0	L1
TAP	83	0	1
BRK	83	96	0
BRK	83	96	1
TAP	83	192	1
TAP	83	288	0
TAP	83	288	1
TAP	84	0	6
TAP	84	96	6
TAP	84	96	7
TAP	84	192	6
TAP	84	288	6
TAP	84	288	7
TAP	85	0	5
TAP	85	96	5
TAP	85	192	4
TAP	85	192	5
TAP	85	288	4
TAP	85	288	5
TAP	86	0	3
TAP	86	0	6
TAP	87	0	2
TAP	87	96	2
TAP	87	96	3
TAP	87	192	2
TAP	87	288	2
TAP	87	288	3
TAP	88	0	5
TAP	88	96	4
TAP	88	96	5
TAP	88	192	5
TAP	88	288	4
TAP	88	288	5
TAP	89	0	6
TAP	89	96	6
TAP	89	192	7
TAP	89	288	7
TAP	90	0	0
TAP	90	0	1
TAP	90	96	0
TAP	90	96	1
TAP	90	192	2
TAP	90	192	7
STR	91	0	6
SCL	91	0	6	96	192	3
STR	92	0	2
SCL	92	0	2	96	192	7
STR	93	0	6
SXR	93	0	6	96	480	3
STR	95	0	2
SXR	95	0	2	96	480	7
STR	97	0	6
SXR	97	0	6	96	480	2
STR	99	0	1
SXL	99	0	1	96	480	5
THO	101	0	0	1152	C	0	L1

T_REC_TAP	188
T_REC_BRK	6
T_REC_XTP	17
T_REC_HLD	17
T_REC_XHO	0
T_REC_STR	25
T_REC_BST	0
T_REC_XST	2
T_REC_TTP	7
T_REC_THO	1
T_REC_SLD	27
T_REC_ALL	290
T_NUM_TAP	239
T_NUM_BRK	6
T_NUM_HLD	18
T_NUM_SLD	27
T_NUM_ALL	290
T_JUDGE_TAP	245
T_JUDGE_HLD	84
T_JUDGE_SLD	27
T_JUDGE_ALL	356
TTM_EACHPAIRS	60
TTM_SCR_TAP	119500
TTM_SCR_BRK	15600
TTM_SCR_HLD	18000
TTM_SCR_SLD	40500
TTM_SCR_ALL	193600
TTM_SCR_S	187250
TTM_SCR_SS	193000
TTM_RAT_ACV	10031

