VERSION	0.00.00	1.03.00
FES_MODE	0
BPM_DEF	180.000	180.000	180.000	180.000
MET_DEF	4	4
RESOLUTION	384
CLK_DEF	384
COMPATIBLE_CODE	MA2

BPM	0	0	180.000
MET	0	0	4	4

TAP	1	0	0
TAP	3	0	0
TAP	5	0	7
BRK	7	0	7
TAP	9	0	0
TAP	10	0	0
TAP	11	0	1
TAP	12	0	1
TAP	13	0	2
TAP	14	0	2
TAP	15	0	3
TAP	16	0	3
TAP	16	0	4
HLD	17	0	4	384
HLD	19	0	5	384
HLD	21	0	6	384
HLD	23	0	0	384
HLD	23	0	7	384
TTP	25	0	7	B	0	L1
TTP	26	0	0	B	0	L1
TTP	27	0	6	B	0	L1
TTP	28	0	1	B	0	L1
TTP	29	0	5	B	0	L1
TTP	30	0	2	B	0	L1
TTP	31	0	4	B	0	L1
TTP	32	0	3	B	0	L1
TTP	33	0	4	B	0	L1
TTP	33	0	5	B	0	L1
TTP	34	0	2	B	0	L1
TTP	34	0	3	B	0	L1
THO	35	0	0	384	C	0	L1
BRK	37	0	7
TAP	37	192	7
TAP	38	0	7
TAP	39	0	6
TAP	39	192	6
TAP	40	0	6
TAP	41	0	5
TAP	41	192	5
TAP	42	0	5
TAP	43	0	4
TAP	43	192	4
TAP	44	0	3
TAP	44	0	4
TAP	45	0	3
TAP	45	192	3
TAP	46	0	3
TAP	47	0	2
TAP	47	192	2
TAP	48	0	2
TAP	49	0	1
TAP	49	192	1
TAP	50	0	0
TAP	50	0	1
STR	51	0	0
SI_	51	0	0	96	480	3
TAP	54	0	7
STR	55	0	7
SI_	55	0	7	96	480	4
TAP	58	0	0
HLD	59	0	0	384
HLD	59	0	1	384
HLD	61	0	2	384
HLD	61	0	3	384
HLD	63	0	4	384
HLD	63	0	5	384
HLD	65	0	6	384
HLD	65	0	7	384
TTP	67	0	0	B	0	L1
TTP	67	0	7	B	0	L1
TTP	68	0	1	B	0	L1
TTP	68	0	6	B	0	L1
THO	69	0	0	384	C	0	L1
TAP	71	0	0
TAP	72	0	1
TAP	73	0	2
TAP	74	0	3
TAP	74	0	4
TAP	75	0	4
TAP	76	0	5
TAP	77	0	6
TAP	78	0	0
TAP	78	0	7
STR	79	0	0
SI_	79	0	0	96	480	3
STR	79	0	7
SI_	79	0	7	96	480	4
TAP	82	0	3
TAP	82	0	4
TAP	83	0	2
TAP	83	192	2
TAP	84	0	2
TAP	84	0	3
TAP	85	0	5
TAP	85	192	5
TAP	86	0	4
TAP	86	0	5
XTP	87	0	3
TAP	87	192	3
TAP	88	0	2
TAP	88	192	2
TAP	89	0	1
TAP	89	192	1
TAP	90	0	0
TAP	90	0	7
TAP	90	192	0
TAP	90	192	7
TAP	91	0	6
TAP	91	192	6
TAP	92	0	5
TAP	92	192	5
XHO	93	0	3	384
XHO	93	0	4	384
HLD	95	0	2	384
HLD	95	0	5	384
HLD	97	0	1	384
HLD	97	0	6	384
HLD	99	0	0	384
HLD	99	0	7	384
TTP	101	0	0	C	1	L1
TTP	101	0	1	B	0	L1
TTP	101	0	6	B	0	L1

T_REC_TAP	69
T_REC_BRK	2
T_REC_XTP	1
T_REC_HLD	19
T_REC_XHO	2
T_REC_STR	4
T_REC_BST	0
T_REC_XST	0
T_REC_TTP	19
T_REC_THO	2
T_REC_SLD	4
T_REC_ALL	122
T_NUM_TAP	93
T_NUM_BRK	2
T_NUM_HLD	23
T_NUM_SLD	4
T_NUM_ALL	122
T_JUDGE_TAP	95
T_JUDGE_HLD	184
T_JUDGE_SLD	4
T_JUDGE_ALL	283
TTM_EACHPAIRS	20
TTM_SCR_TAP	46500
TTM_SCR_BRK	5200
TTM_SCR_HLD	23000
TTM_SCR_SLD	6000
TTM_SCR_ALL	80700
TTM_SCR_S	78100
TTM_SCR_SS	80500
TTM_RAT_ACV	10024

