VERSION	0.00.00	1.03.00
FES_MODE	0
BPM_DEF	148.000	148.000	148.000	148.000
MET_DEF	4	4
RESOLUTION	384
CLK_DEF	384
COMPATIBLE_CODE	MA2

BPM	0	0	148.000
MET	0	0	4	4

TAP	1	0	3
HLD	1	0	4	336
TAP	1	96	3
TAP	1	192	2
TAP	1	288	2
TAP	1	336	2
TAP	1	352	4
TAP	1	368	3
HLD	2	0	5	288
TAP	2	96	4
TAP	2	192	6
TAP	2	288	4
TAP	3	0	2
HLD	3	0	3	336
TAP	3	96	2
TAP	3	192	1
TAP	3	288	1
TAP	3	336	1
TAP	3	352	3
TAP	3	368	2
HLD	4	0	4	288
TAP	4	96	3
STR	4	192	5
SCL	4	192	5	96	48	3
HLD	5	0	5	336
TAP	5	96	4
TAP	5	192	3
TAP	5	288	3
TAP	5	336	3
TAP	5	352	4
TAP	5	368	2
HLD	6	0	3	288
TAP	6	96	2
STR	6	192	1
SCR	6	192	1	96	48	3
XHO	7	0	4	64
XHO	7	0	6	144
TAP	7	144	2
HLD	7	192	1	144
HLD	7	192	3	72
TAP	7	336	4
TAP	8	0	5
TAP	8	48	3
TAP	8	96	2
TAP	8	144	6
STR	8	192	0
SI_	8	192	0	96	48	4
SI_	8	192	0	96	48	5
TAP	8	192	7
BRK	9	0	3
BRK	9	0	6
TAP	9	96	7
TAP	9	120	2
TAP	9	144	3
TAP	9	168	2
TAP	9	192	6
TAP	9	216	4
TAP	9	240	5
TAP	9	264	4
TAP	9	288	7
HLD	9	312	0	48
TAP	9	360	7
TAP	10	24	4
TAP	10	24	6
TAP	10	72	2
TAP	10	72	3
TAP	10	120	1
TAP	10	144	3
TAP	10	168	2
TAP	10	192	5
TAP	10	216	4
TAP	10	240	6
TAP	10	264	3
BST	10	288	7
SUL	10	288	7	96	48	2
SUR	10	288	7	96	48	4
BRK	11	0	7
XTP	11	96	1
XTP	11	96	5
XTP	11	144	1
XTP	11	144	5
TAP	11	192	2
TAP	11	216	3
TAP	11	240	0
TAP	11	288	5
TAP	11	312	4
TAP	11	336	7
HLD	12	0	1	48
TAP	12	0	3
TAP	12	48	4
HLD	12	72	3	48
TAP	12	120	6
HLD	12	144	4	48
STR	12	192	7
SI_	12	192	7	96	48	2
SI_	12	192	7	96	48	3
BRK	13	0	1
BRK	13	0	4
TAP	13	96	0
TAP	13	120	5
TAP	13	144	4
TAP	13	168	5
TAP	13	192	1
TAP	13	216	3
TAP	13	240	2
TAP	13	264	3
TAP	13	288	0
HLD	13	312	7	48
TAP	13	360	0
TAP	14	24	1
TAP	14	24	3
TAP	14	72	4
TAP	14	72	5
TAP	14	120	6
TAP	14	144	7
TAP	14	168	5
TAP	14	192	2
TAP	14	216	3
TAP	14	240	1
TAP	14	264	7
BST	14	288	0
SI_	14	288	0	96	48	4
BRK	15	0	0
BRK	15	0	3
TAP	15	96	5
TAP	15	120	3
TAP	15	144	5
TAP	15	168	3
STR	15	192	6
SSR	15	192	6	96	96	2
TAP	15	216	2
TAP	15	240	6
TAP	15	264	2
XTP	15	288	6
STR	16	0	0
SI_	16	0	0	96	48	4
STR	16	96	4
SI_	16	96	4	96	48	2
TAP	16	144	5
HLD	16	192	6	96
STR	16	288	0
SCR	16	288	0	96	96	6
TTP	17	0	0	C	1	M1
XTP	17	96	7
XTP	17	144	7
TAP	17	192	6
TAP	17	216	2
TAP	17	240	3
TAP	17	264	2
TAP	17	288	7
HLD	17	312	0	48
TAP	17	360	7
TAP	18	24	1
TAP	18	24	3
TAP	18	72	4
TAP	18	72	5
TAP	18	120	6
TAP	18	144	4
TAP	18	168	5
TAP	18	192	2
TAP	18	216	3
TAP	18	240	1
TAP	18	264	4
BST	18	288	0
SUL	18	288	0	96	48	3
SUR	18	288	0	96	48	5
BRK	19	0	0
XTP	19	96	2
XTP	19	96	6
XTP	19	144	2
XTP	19	144	6
TAP	19	192	5
TAP	19	216	4
TAP	19	240	7
TAP	19	288	2
TAP	19	312	3
TAP	19	336	0
TAP	20	0	4
HLD	20	0	6	48
TAP	20	48	3
HLD	20	72	4	48
TAP	20	120	1
HLD	20	144	3	48
XST	20	192	0
SV_	20	192	0	96	48	3
SV_	20	192	0	96	48	5
XTP	20	240	1
XTP	20	240	7
BRK	21	0	2
BRK	21	0	6
TAP	21	96	1
TAP	21	120	5
TAP	21	144	4
TAP	21	168	5
TAP	21	192	0
TAP	21	216	3
TAP	21	240	2
TAP	21	264	3
TAP	21	288	1
HLD	21	312	7	48
TAP	21	360	0
TAP	22	24	1
TAP	22	24	3
TAP	22	72	4
TAP	22	72	5
TAP	22	120	6
TAP	22	144	7
TAP	22	168	5
TAP	22	192	2
TAP	22	216	3
TAP	22	240	1
TAP	22	264	7
BST	22	288	0
SI_	22	288	0	96	48	4
BRK	23	0	0
BRK	23	0	3
TAP	23	96	5
TAP	23	120	3
TAP	23	144	5
TAP	23	168	3
STR	23	192	6
SSR	23	192	6	96	96	2
TAP	23	216	2
TAP	23	240	6
TAP	23	264	2
XTP	23	288	6
STR	24	0	0
SI_	24	0	0	96	48	4
TAP	24	96	4
TAP	24	144	5
BRK	24	192	2
HLD	24	192	6	192
STR	25	0	0
SCR	25	0	0	96	192	3
TAP	25	144	3
TAP	25	192	4
TAP	25	288	6
STR	26	0	7
SCL	26	0	7	96	192	4
TAP	26	144	4
TAP	26	192	3
TAP	26	288	0
HLD	27	0	0	288
TAP	27	96	2
TAP	27	192	4
STR	27	288	3
SCR	27	288	3	96	96	7
TAP	28	0	2
STR	28	96	4
SCL	28	96	4	96	96	0
TAP	28	192	7
TAP	28	288	6
STR	29	0	6
SCL	29	0	6	96	192	3
TTP	29	144	4	B	0	M1
TTP	29	144	5	B	0	M1
TTP	29	192	1	B	0	M1
TTP	29	192	2	B	0	M1
TAP	29	288	0
STR	30	0	1
SCR	30	0	1	96	192	4
TTP	30	144	2	B	0	M1
TTP	30	144	3	B	0	M1
TTP	30	192	5	B	0	M1
TTP	30	192	6	B	0	M1
TAP	30	288	7
HLD	31	0	6	64
TAP	31	64	4
HLD	31	96	4	64
TAP	31	160	3
HLD	31	192	3	64
TAP	31	256	2
HLD	31	288	2	64
TAP	31	352	3
STR	32	0	3
SI_	32	0	3	96	48	5
TAP	32	48	2
STR	32	96	1
SI_	32	96	1	96	48	3
TAP	32	144	1
STR	32	192	7
SI_	32	192	7	96	48	1
TAP	32	240	7
TAP	32	288	4
HLD	33	0	3	48
HLD	33	96	3	48
HLD	33	192	3	48
HLD	33	192	4	48
HLD	33	288	3	48
HLD	33	288	6	48
HLD	34	0	4	48
HLD	34	0	5	48
HLD	34	96	1	48
HLD	34	96	3	48
HLD	34	192	4	48
HLD	34	192	6	48
HLD	34	288	2	48
HLD	34	288	3	48
TAP	35	0	4
TAP	35	0	5
TAP	35	48	6
TAP	35	96	2
TAP	35	96	3
TAP	35	144	1
TAP	35	192	3
TAP	35	192	4
TAP	35	240	5
TAP	35	288	3
STR	35	288	4
SXL	35	288	4	96	96	4
TAP	35	336	2
HLD	36	0	3	192
STR	36	0	4
SXR	36	0	4	96	96	4
TAP	36	288	2
TAP	36	288	6
TAP	37	0	3
HLD	37	0	4	48
TAP	37	96	1
HLD	37	96	4	48
HLD	37	192	3	48
TAP	37	192	4
HLD	37	288	3	48
TAP	37	288	6
TAP	38	0	4
HLD	38	0	5	48
TAP	38	96	1
HLD	38	96	3	48
HLD	38	192	4	48
TAP	38	192	5
HLD	38	288	2	48
TAP	38	288	3
TAP	39	0	3
TAP	39	0	4
TAP	39	48	3
TAP	39	96	5
TAP	39	120	4
TAP	39	144	6
TAP	39	192	3
TAP	39	192	7
TAP	39	240	2
TAP	39	264	3
TAP	39	288	1
HLD	39	336	0	72
TAP	39	336	4
HLD	40	24	3	72
HLD	40	96	1	72
HLD	40	168	5	72
HLD	40	240	4	72
HLD	40	312	6	72
THO	41	0	0	192	C	0	M1
STR	41	192	7
SI_	41	192	7	96	48	2
SI_	41	192	7	96	48	3
BRK	42	0	0
BRK	42	0	5
TAP	42	96	7
TAP	42	120	1
TAP	42	144	3
TAP	42	168	2
TAP	42	192	6
TAP	42	216	3
TAP	42	240	5
TAP	42	264	4
TAP	42	288	7
HLD	42	312	0	48
TAP	42	360	7
TAP	43	24	4
TAP	43	24	6
TAP	43	72	2
TAP	43	72	3
TAP	43	120	1
TAP	43	144	3
TAP	43	168	2
TAP	43	192	5
TAP	43	216	4
TAP	43	240	6
TAP	43	264	3
BST	43	288	7
SUL	43	288	7	96	48	2
SUR	43	288	7	96	48	4
BRK	44	0	7
XTP	44	96	1
XTP	44	96	5
XTP	44	144	1
XTP	44	144	5
TAP	44	192	2
TAP	44	216	4
TAP	44	240	0
TAP	44	288	5
TAP	44	312	3
TAP	44	336	7
TAP	45	0	0
HLD	45	0	6	48
TAP	45	48	3
HLD	45	72	4	48
TAP	45	120	1
HLD	45	144	2	48
STR	45	192	0
SI_	45	192	0	96	48	4
SI_	45	192	0	96	48	5
BRK	46	0	2
BRK	46	0	7
TAP	46	96	0
TAP	46	120	6
TAP	46	144	4
TAP	46	168	5
TAP	46	192	1
TAP	46	216	4
TAP	46	240	2
TAP	46	264	3
TAP	46	288	0
HLD	46	312	7	48
TAP	46	360	0
TAP	47	24	1
TAP	47	24	3
TAP	47	72	4
TAP	47	72	5
TAP	47	120	6
TAP	47	144	7
TAP	47	168	5
TAP	47	192	2
TAP	47	216	3
TAP	47	240	1
TAP	47	264	7
BST	47	288	0
SI_	47	288	0	96	48	4
BRK	48	0	0
BRK	48	0	3
TAP	48	96	5
TAP	48	120	3
TAP	48	144	5
TAP	48	168	3
STR	48	192	6
SSL	48	192	6	96	96	2
TAP	48	216	2
TAP	48	240	6
TAP	48	264	2
XTP	48	288	6
STR	49	0	0
SI_	49	0	0	96	48	4
STR	49	96	4
SI_	49	96	4	96	48	1
TAP	49	144	5
STR	49	192	6
SI_	49	192	6	96	48	3
TAP	49	240	7
STR	49	288	0
SCR	49	288	0	96	96	6
TTP	50	0	0	C	1	M1
XTP	50	96	7
XTP	50	144	7
TAP	50	192	6
TAP	50	216	1
TAP	50	240	3
TAP	50	264	2
TAP	50	288	7
HLD	50	312	1	48
TAP	50	360	0
TAP	51	24	2
TAP	51	24	3
TAP	51	72	4
TAP	51	72	5
TAP	51	120	6
TAP	51	144	4
TAP	51	168	5
TAP	51	192	2
TAP	51	216	3
TAP	51	240	1
TAP	51	264	4
BST	51	288	0
SUL	51	288	0	96	48	3
SUR	51	288	0	96	48	5
BRK	52	0	0
XTP	52	96	2
XTP	52	96	6
XTP	52	144	2
XTP	52	144	6
TAP	52	192	5
TAP	52	216	3
TAP	52	240	7
TAP	52	288	2
TAP	52	312	4
TAP	52	336	0
HLD	53	0	6	48
TAP	53	0	7
TAP	53	48	3
HLD	53	72	4	48
TAP	53	120	1
HLD	53	144	2	48
XST	53	192	0
SCL	53	192	0	96	48	5
SCR	53	192	0	96	48	3
XTP	53	240	1
XTP	53	240	7
BRK	54	0	1
BRK	54	0	7
TAP	54	96	2
TAP	54	120	6
TAP	54	144	4
TAP	54	168	5
TAP	54	192	0
TAP	54	216	3
TAP	54	240	1
TAP	54	264	2
TAP	54	288	1
HLD	54	312	0	48
TAP	54	360	1
TAP	55	24	2
TAP	55	24	3
TAP	55	72	4
TAP	55	72	5
TAP	55	120	6
TAP	55	144	7
TAP	55	168	5
TAP	55	192	2
TAP	55	216	3
TAP	55	240	1
TAP	55	264	6
BST	55	288	0
SI_	55	288	0	96	48	4
BRK	56	0	0
BRK	56	0	3
TAP	56	96	5
TAP	56	120	3
TAP	56	144	4
TAP	56	168	2
STR	56	192	6
SSL	56	192	6	96	96	2
TAP	56	216	1
TAP	56	240	5
TAP	56	264	2
XTP	56	288	6
STR	57	0	0
SI_	57	0	0	96	48	4
STR	57	96	4
SI_	57	96	4	96	48	0
TAP	57	144	5
BRK	57	192	6
TTP	57	193	0	C	1	M1
STR	58	0	0
SCR	58	0	0	96	450	7
TAP	58	144	3
XST	58	192	3
SCR	58	192	3	96	384	1
TAP	58	336	6
STR	59	0	6
SCR	59	0	6	96	324	3
TTP	59	96	5	E	0	M1
TTP	59	192	3	E	0	M1
TTP	59	288	0	C	0	M1
STR	60	0	4
SCR	60	0	4	96	288	2
TAP	60	144	1
TAP	60	192	0
TAP	60	352	3
HLD	61	0	3	96
TAP	61	64	2
HLD	61	96	2	96
TAP	61	160	1
XST	61	192	1
SI_	61	192	1	96	48	5
TAP	61	256	4
STR	61	288	4
SCL	61	288	4	96	288	4
TAP	62	0	0
TAP	62	144	3
XST	62	192	4
SCL	62	192	4	96	384	4
TAP	62	336	7
STR	63	0	0
SCL	63	0	0	96	192	4
TTP	63	96	0	E	0	M1
TTP	63	192	0	C	0	M1
TTP	63	288	4	E	0	M1
TAP	64	0	6
TAP	64	32	4
TAP	64	64	5
TAP	64	96	2
TAP	64	128	3
TAP	64	160	1
XTP	64	192	5
TAP	64	224	4
TAP	64	256	6
TAP	64	288	3
TAP	64	336	3
STR	65	0	2
SI_	65	0	2	96	48	4
TAP	65	48	1
STR	65	96	0
SI_	65	96	0	96	48	2
TAP	65	144	7
XST	65	192	6
SI_	65	192	6	96	48	0
TAP	65	240	5
TAP	65	288	4
HLD	66	0	3	48
HLD	66	0	4	48
HLD	66	96	3	48
HLD	66	96	7	48
HLD	66	192	3	48
HLD	66	192	4	48
HLD	66	288	3	48
HLD	66	288	6	48
HLD	67	0	3	48
TAP	67	0	7
TAP	67	48	6
HLD	67	96	4	48
TAP	67	96	5
TAP	67	144	6
TAP	67	192	3
HLD	67	192	7	48
TAP	67	240	4
TAP	67	288	5
HLD	67	288	6	48
TAP	67	336	4
TAP	68	0	2
HLD	68	0	3	48
TAP	68	48	1
TAP	68	96	0
HLD	68	96	4	48
TAP	68	144	1
HLD	68	192	2	48
TAP	68	192	3
TAP	68	240	4
TAP	68	288	3
STR	68	288	4
SXR	68	288	4	96	96	4
TAP	68	336	5
HLD	69	0	3	192
STR	69	0	4
SXL	69	0	4	96	96	4
SXL	69	0	4	96	96	4
TAP	69	288	2
TAP	69	288	6
HLD	70	0	3	48
HLD	70	0	4	48
HLD	70	96	0	48
HLD	70	96	4	48
HLD	70	192	3	48
HLD	70	192	4	48
HLD	70	288	1	48
HLD	70	288	4	48
HLD	71	0	4	48
TAP	71	0	5
TAP	71	48	6
TAP	71	96	3
HLD	71	96	7	48
TAP	71	144	4
TAP	71	192	5
HLD	71	192	6	48
TAP	71	240	4
TAP	71	288	2
HLD	71	288	3	48
TAP	71	336	1
TAP	72	0	0
STR	72	0	4
SI_	72	0	4	96	48	6
TAP	72	48	5
STR	72	96	3
SI_	72	96	3	96	48	1
TAP	72	144	2
STR	72	192	4
SI_	72	192	4	96	48	0
TAP	72	240	5
TAP	72	288	3
HLD	72	336	2	72
HLD	73	24	0	72
HLD	73	96	6	72
HLD	73	168	4	72
HLD	73	240	2	72
HLD	73	312	0	72
THO	74	0	0	192	C	0	M1
STR	74	192	7
SI_	74	192	7	96	48	2
SI_	74	192	7	96	48	3
TTP	74	288	0	C	1	M1
XTP	75	0	0
XTP	75	0	5
TAP	75	96	2
TAP	75	120	3
TAP	75	168	6
TAP	75	192	7
TAP	75	240	5
TAP	75	264	5
TAP	75	288	4
TAP	75	336	0
TAP	75	360	0
HLD	76	0	7	48
TAP	76	48	4
HLD	76	72	5	48
TAP	76	120	6
HLD	76	144	4	48
STR	76	192	0
SI_	76	192	0	96	48	4
TAP	76	240	3
XTP	76	288	7
HLD	77	0	7	48
HLD	77	48	4	48
STR	77	96	7
SI_	77	96	7	96	48	3
TAP	77	144	4
TAP	77	168	4
TAP	77	216	1
TAP	77	240	1
TAP	77	288	0
TAP	77	288	1
HLD	77	336	2	72
TAP	77	336	7
TAP	78	24	0
TAP	78	48	0
TAP	78	72	1
TAP	78	96	3
TAP	78	120	3
STR	78	144	2
SI_	78	144	2	96	48	6
STR	78	192	4
SI_	78	192	4	96	48	0
XTP	79	0	1
XTP	79	0	7
TAP	79	48	2
TAP	79	72	2
TAP	79	96	4
TAP	79	120	4
TAP	79	144	3
TAP	79	168	3
STR	79	192	5
SI_	79	192	5	96	48	1
TAP	79	240	4
TAP	79	240	6
TAP	79	288	5
STR	80	0	2
SCL	80	0	2	96	48	7
TAP	80	24	3
TAP	80	72	3
TAP	80	96	2
TAP	80	144	4
STR	80	192	5
SF_	80	192	5	96	48	1
TAP	80	240	4
TAP	80	240	6
TAP	81	0	3
HLD	81	0	7	96
TAP	81	96	2
TAP	81	120	1
TAP	81	120	4
TAP	81	168	5
TAP	81	192	3
STR	81	192	6
SI_	81	192	6	96	48	2
TAP	81	240	4
TAP	81	264	4
TAP	81	312	7
STR	81	336	7
SCR	81	336	7	96	108	2
STR	82	24	1
SCR	82	24	1	96	108	4
STR	82	96	3
SCR	82	96	3	96	108	6
STR	82	168	5
SCR	82	168	5	96	72	7
STR	82	240	7
SCR	82	240	7	96	432	7
THO	82	312	0	456	C	1	M1

T_REC_TAP	420
T_REC_BRK	26
T_REC_XTP	34
T_REC_HLD	107
T_REC_XHO	2
T_REC_STR	57
T_REC_BST	8
T_REC_XST	6
T_REC_TTP	18
T_REC_THO	3
T_REC_SLD	83
T_REC_ALL	764
T_NUM_TAP	535
T_NUM_BRK	34
T_NUM_HLD	112
T_NUM_SLD	83
T_NUM_ALL	764
T_JUDGE_TAP	569
T_JUDGE_HLD	201
T_JUDGE_SLD	83
T_JUDGE_ALL	853
TTM_EACHPAIRS	101
TTM_SCR_TAP	267500
TTM_SCR_BRK	88400
TTM_SCR_HLD	112000
TTM_SCR_SLD	124500
TTM_SCR_ALL	592400
TTM_SCR_S	571350
TTM_SCR_SS	589000
TTM_RAT_ACV	10057

