VERSION	0.00.00	1.03.00
FES_MODE	0
BPM_DEF	148.000	148.000	148.000	148.000
MET_DEF	4	4
RESOLUTION	384
CLK_DEF	384
COMPATIBLE_CODE	MA2

BPM	0	0	148.000
MET	0	0	4	4

HLD	1	0	4	384
TAP	1	96	3
TAP	1	192	3
TAP	1	288	2
TAP	1	336	2
HLD	2	0	2	384
TAP	2	96	3
TAP	2	192	1
TAP	2	288	3
HLD	3	0	4	288
TAP	3	96	3
TAP	3	192	3
STR	3	288	3
SUR	3	288	3	96	192	4
TAP	4	288	2
TAP	4	288	5
HLD	5	0	3	384
TAP	5	96	4
TAP	5	192	4
TAP	5	288	5
TAP	5	336	5
HLD	6	0	5	288
TAP	6	96	4
TAP	6	192	6
TAP	6	288	4
XTP	7	0	4
XTP	7	0	6
XTP	7	144	2
XTP	7	192	2
XTP	7	192	3
TAP	7	336	4
TAP	8	0	3
TAP	8	0	4
TAP	8	96	2
TAP	8	96	5
STR	8	192	0
SI_	8	192	0	96	48	4
STR	8	192	7
SI_	8	192	7	96	48	3
BRK	9	0	2
BRK	9	0	5
HLD	9	96	6	48
HLD	9	96	7	48
HLD	9	192	4	48
HLD	9	192	5	48
HLD	9	288	6	48
HLD	9	288	7	48
HLD	10	0	3	48
HLD	10	0	4	48
HLD	10	96	0	48
HLD	10	96	1	48
HLD	10	192	3	48
HLD	10	192	4	48
BRK	10	288	4
BRK	10	288	6
BRK	11	0	0
BRK	11	0	5
STR	11	96	1
SI_	11	96	1	96	48	3
STR	11	192	0
SI_	11	192	0	96	48	6
STR	11	288	1
SUR	11	288	1	96	192	4
XTP	12	0	0
TAP	12	192	6
TAP	12	288	0
TAP	12	288	6
BRK	13	0	2
BRK	13	0	4
HLD	13	96	0	48
HLD	13	96	1	48
HLD	13	192	2	48
HLD	13	192	3	48
HLD	13	288	0	48
HLD	13	288	1	48
HLD	14	0	3	48
HLD	14	0	4	48
HLD	14	96	6	48
HLD	14	96	7	48
HLD	14	192	3	48
HLD	14	192	4	48
BRK	14	288	1
BRK	14	288	3
BRK	15	0	2
BRK	15	0	7
STR	15	96	1
SI_	15	96	1	96	48	5
STR	15	192	7
SI_	15	192	7	96	48	3
STR	15	288	2
SCL	15	288	2	96	192	5
XTP	16	0	5
XTP	16	192	4
TAP	16	288	3
TAP	16	288	4
BRK	17	0	1
BRK	17	0	6
HLD	17	96	4	48
HLD	17	96	5	48
HLD	17	192	6	48
HLD	17	192	7	48
HLD	17	288	4	48
HLD	17	288	5	48
HLD	18	0	0	48
HLD	18	0	7	48
HLD	18	96	2	48
HLD	18	96	3	48
HLD	18	192	0	48
HLD	18	192	7	48
BRK	18	288	4
BRK	18	288	5
BRK	19	0	3
BRK	19	0	7
STR	19	96	6
SI_	19	96	6	96	48	4
STR	19	192	7
SI_	19	192	7	96	48	1
STR	19	288	6
SXR	19	288	6	96	192	2
XTP	20	0	2
XTP	20	192	0
XTP	20	240	0
XTP	20	288	0
BRK	21	0	1
BRK	21	0	5
HLD	21	96	2	48
HLD	21	96	3	48
HLD	21	192	0	48
HLD	21	192	1	48
HLD	21	288	2	48
HLD	21	288	3	48
HLD	22	0	0	48
HLD	22	0	7	48
HLD	22	96	4	48
HLD	22	96	5	48
HLD	22	192	0	48
HLD	22	192	7	48
BRK	22	288	2
BRK	22	288	3
BRK	23	0	0
BRK	23	0	4
TAP	23	96	1
TAP	23	96	3
TAP	23	192	4
TAP	23	192	5
TAP	23	288	3
TAP	23	288	4
THO	24	0	0	192	C	1	M1
TTP	24	192	1	B	0	M1
TTP	24	192	6	B	0	M1
STR	25	0	0
SI_	25	0	0	96	96	3
STR	25	192	4
SI_	25	192	4	96	96	7
TTP	26	0	0	E	0	M1
TTP	26	96	0	C	0	M1
TTP	26	192	4	E	0	M1
TTP	26	288	3	E	0	M1
TTP	26	288	5	E	0	M1
STR	27	0	6
SI_	27	0	6	96	96	3
STR	27	192	2
SI_	27	192	2	96	96	7
TTP	28	0	7	E	0	M1
TTP	28	96	0	C	0	M1
TTP	28	192	3	E	0	M1
TTP	28	288	2	E	0	M1
TTP	28	288	4	E	0	M1
STR	29	0	0
SCR	29	0	0	96	96	3
STR	29	192	5
SCR	29	192	5	96	96	0
TTP	30	0	1	E	0	M1
TTP	30	96	0	C	0	M1
TTP	30	192	5	E	0	M1
TTP	30	288	4	E	0	M1
TTP	30	288	6	E	0	M1
HLD	31	0	6	96
HLD	31	96	4	96
HLD	31	192	3	96
HLD	31	288	1	96
TAP	32	0	3
TAP	32	48	3
TAP	32	96	2
TAP	32	192	4
TAP	32	192	5
TAP	32	288	3
TAP	32	288	6
HLD	33	0	4	288
TAP	33	96	3
TAP	33	192	3
TAP	33	288	5
HLD	34	0	3	288
TAP	34	0	4
TAP	34	96	4
TAP	34	192	2
TAP	34	288	4
TTP	35	0	5	E	0	M1
TTP	35	96	6	B	0	M1
TTP	35	96	6	E	0	M1
TTP	35	192	3	E	0	M1
TTP	35	288	1	B	0	M1
TTP	35	288	2	E	0	M1
STR	36	0	7
SUL	36	0	7	96	96	3
SUR	36	0	7	96	96	3
TAP	36	288	2
TAP	36	288	5
TAP	37	0	0
HLD	37	0	1	288
TAP	37	96	0
TAP	37	192	2
TAP	37	288	0
HLD	38	0	6	288
TAP	38	0	7
TAP	38	96	7
TAP	38	192	5
TAP	38	288	7
TAP	39	0	5
TAP	39	48	5
TAP	39	96	4
TAP	39	144	4
TAP	39	192	3
TAP	39	240	3
TAP	39	288	2
XHO	39	336	2	72
XTP	40	24	3
XTP	40	96	1
XTP	40	96	4
XTP	40	168	2
XTP	40	168	5
XTP	40	240	3
XTP	40	240	6
XTP	40	312	4
XTP	40	312	5
XHO	41	0	3	192
XTP	41	0	4
STR	41	192	2
SI_	41	192	2	96	48	6
BRK	42	0	0
BRK	42	0	5
HLD	42	96	4	48
HLD	42	96	6	48
HLD	42	192	0	48
HLD	42	192	1	48
HLD	42	288	4	48
HLD	42	288	5	48
HLD	43	0	0	48
HLD	43	0	2	48
HLD	43	96	4	48
HLD	43	96	5	48
HLD	43	192	2	48
HLD	43	192	3	48
BRK	43	288	3
BRK	43	288	4
BRK	44	0	0
BRK	44	0	7
STR	44	96	1
SI_	44	96	1	96	48	5
STR	44	192	0
SI_	44	192	0	96	48	4
STR	44	288	1
SXL	44	288	1	96	192	5
XTP	45	0	6
TAP	45	192	7
TAP	45	288	0
TAP	45	288	6
BRK	46	0	2
BRK	46	0	4
HLD	46	96	3	48
HLD	46	96	5	48
HLD	46	192	0	48
HLD	46	192	1	48
HLD	46	288	4	48
HLD	46	288	5	48
HLD	47	0	0	48
HLD	47	0	2	48
HLD	47	96	4	48
HLD	47	96	5	48
HLD	47	192	6	48
HLD	47	192	7	48
BRK	47	288	3
BRK	47	288	4
BRK	48	0	0
BST	48	0	1
SI_	48	0	1	96	48	3
STR	48	96	7
SI_	48	96	7	96	48	5
STR	48	192	0
SI_	48	192	0	96	48	4
STR	48	288	7
SCL	48	288	7	96	192	2
XTP	49	0	3
XHO	49	192	1	96
TAP	49	288	0
BRK	50	0	2
BRK	50	0	7
HLD	50	96	4	48
HLD	50	96	5	48
HLD	50	192	0	48
HLD	50	192	2	48
HLD	50	288	5	48
HLD	50	288	6	48
HLD	51	0	1	48
HLD	51	0	3	48
HLD	51	96	6	48
HLD	51	96	7	48
HLD	51	192	3	48
HLD	51	192	4	48
BRK	51	288	0
BRK	51	288	1
BRK	52	0	3
BRK	52	0	7
STR	52	96	6
SI_	52	96	6	96	48	3
STR	52	192	7
SI_	52	192	7	96	48	2
STR	52	288	5
SXR	52	288	5	96	192	1
XTP	53	0	1
XTP	53	192	0
XTP	53	240	0
XTP	53	288	0
BRK	54	0	1
BRK	54	0	5
HLD	54	96	2	48
HLD	54	96	3	48
HLD	54	192	5	48
HLD	54	192	7	48
HLD	54	288	1	48
HLD	54	288	2	48
HLD	55	0	4	48
HLD	55	0	6	48
HLD	55	96	0	48
HLD	55	96	1	48
HLD	55	192	3	48
HLD	55	192	4	48
BRK	55	288	6
BRK	55	288	7
BRK	56	0	0
BRK	56	0	4
TAP	56	96	1
TAP	56	96	3
TAP	56	192	4
TAP	56	192	5
TAP	56	288	3
TAP	56	288	4
THO	57	0	0	192	C	1	M1
TTP	57	192	1	B	0	M1
TTP	57	192	6	B	0	M1
TAP	58	0	7
TAP	58	48	7
TAP	58	96	0
TAP	58	144	0
TAP	58	192	6
TAP	58	240	6
TAP	58	288	0
TAP	58	336	0
TAP	59	0	5
TAP	59	48	5
TAP	59	96	4
TAP	59	144	4
TAP	59	192	4
TAP	59	192	5
TAP	59	288	3
TAP	59	288	6
TAP	60	0	4
TAP	60	0	5
TAP	60	48	4
TAP	60	96	4
TAP	60	144	4
TAP	60	192	4
TAP	60	192	6
TAP	60	240	6
TAP	60	288	6
TAP	60	336	6
TAP	61	0	6
HLD	61	0	7	96
HLD	61	96	6	96
HLD	61	192	5	96
TAP	61	288	4
TAP	62	0	3
TAP	62	48	3
TAP	62	96	4
TAP	62	144	4
TAP	62	192	2
TAP	62	240	2
TAP	62	288	4
TAP	62	336	4
TAP	63	0	1
TAP	63	48	1
TAP	63	96	0
TAP	63	144	0
TAP	63	192	0
TAP	63	192	1
TAP	63	288	2
TAP	63	288	7
TAP	64	0	0
TAP	64	0	1
TAP	64	48	0
TAP	64	96	0
TAP	64	144	0
TAP	64	192	0
TAP	64	192	2
TAP	64	240	2
TAP	64	288	2
TAP	64	336	2
STR	65	0	2
SI_	65	0	2	96	48	5
STR	65	0	3
SI_	65	0	3	96	48	5
STR	65	192	6
SI_	65	192	6	96	48	1
STR	65	192	7
SI_	65	192	7	96	48	1
XTP	66	0	2
XTP	66	0	3
TAP	66	96	2
TAP	66	96	3
HLD	66	192	2	480
TAP	66	192	4
TAP	66	240	4
TAP	66	288	4
TAP	67	0	3
TAP	67	96	0
TAP	67	192	3
TAP	67	288	1
HLD	68	0	6	288
TAP	68	0	7
TAP	68	96	4
TAP	68	192	5
STR	68	288	7
SCR	68	288	7	96	192	5
XTP	69	192	7
XTP	69	288	7
XTP	70	0	0
XTP	70	0	1
TAP	70	96	0
TAP	70	96	1
HLD	70	192	1	480
TAP	70	192	7
TAP	70	240	7
TAP	70	288	7
TAP	71	0	0
TAP	71	96	3
TAP	71	192	4
TAP	71	288	0
STR	72	0	7
SI_	72	0	7	96	48	3
STR	72	96	2
SI_	72	96	2	96	48	0
STR	72	192	4
SI_	72	192	4	96	48	6
STR	72	288	3
SCL	72	288	3	96	288	4
THO	74	0	0	192	C	0	M1
BRK	74	288	0
BRK	74	288	7
HLD	75	0	1	72
HLD	75	72	2	72
TAP	75	144	3
TAP	75	192	4
TAP	75	192	5
STR	75	288	3
SI_	75	288	3	96	48	7
STR	75	288	6
SI_	75	288	6	96	48	3
STR	76	96	0
SI_	76	96	0	96	48	4
STR	76	96	5
SI_	76	96	5	96	48	0
XTP	76	288	2
XTP	76	288	6
HLD	77	0	5	72
HLD	77	72	6	72
TAP	77	144	7
TAP	77	192	0
TAP	77	192	1
TAP	77	288	2
STR	77	288	3
SI_	77	288	3	96	48	7
TAP	78	0	1
STR	78	96	0
SI_	78	96	0	96	48	4
TAP	78	96	6
TAP	78	192	5
TAP	78	288	3
TAP	78	288	6
STR	79	0	5
SI_	79	0	5	96	48	1
STR	79	96	0
SCR	79	96	0	96	144	5
XTP	79	192	7
TAP	79	240	7
TAP	79	288	7
STR	80	0	6
SI_	80	0	6	96	48	2
STR	80	96	3
SCL	80	96	3	96	144	6
XTP	80	192	4
TAP	80	240	4
TAP	80	288	4
HLD	81	0	5	72
TAP	81	72	4
TAP	81	144	3
TAP	81	144	6
HLD	81	192	2	72
TAP	81	264	3
HLD	81	336	1	72
TAP	81	336	4
HLD	82	24	7	72
HLD	82	96	5	72
HLD	82	168	3	72
STR	82	240	1
SCR	82	240	1	96	432	7
THO	82	312	0	456	C	1	M1

T_REC_TAP	171
T_REC_BRK	49
T_REC_XTP	38
T_REC_HLD	125
T_REC_XHO	3
T_REC_STR	49
T_REC_BST	1
T_REC_XST	0
T_REC_TTP	25
T_REC_THO	4
T_REC_SLD	51
T_REC_ALL	516
T_NUM_TAP	283
T_NUM_BRK	50
T_NUM_HLD	132
T_NUM_SLD	51
T_NUM_ALL	516
T_JUDGE_TAP	333
T_JUDGE_HLD	246
T_JUDGE_SLD	51
T_JUDGE_ALL	630
TTM_EACHPAIRS	127
TTM_SCR_TAP	141500
TTM_SCR_BRK	130000
TTM_SCR_HLD	132000
TTM_SCR_SLD	76500
TTM_SCR_ALL	480000
TTM_SCR_S	460750
TTM_SCR_SS	475000
TTM_RAT_ACV	10105

