VERSION	0.00.00	1.03.00
FES_MODE	0
BPM_DEF	148.000	148.000	148.000	148.000
MET_DEF	4	4
RESOLUTION	384
CLK_DEF	384
COMPATIBLE_CODE	MA2

BPM	0	0	148.000
MET	0	0	4	4

TAP	1	0	2
TAP	1	96	2
TAP	1	192	2
TAP	1	192	3
STR	2	0	1
SCR	2	0	1	96	144	4
TAP	3	0	5
TAP	3	96	5
TAP	3	192	4
TAP	3	192	5
STR	4	0	6
SCL	4	0	6	96	144	3
TAP	5	0	2
TAP	5	96	2
TAP	5	192	2
TAP	5	192	3
STR	6	0	2
SCL	6	0	2	96	144	7
XTP	7	0	6
XTP	7	0	7
XTP	7	192	0
XTP	7	192	1
TAP	8	0	0
TAP	8	0	7
TAP	8	96	0
TAP	8	96	7
TAP	8	192	1
TAP	8	192	6
XHO	9	0	5	192
TAP	9	192	4
TAP	9	288	4
TAP	10	0	3
TAP	10	96	3
TAP	10	192	2
TAP	10	192	4
XHO	11	0	1	192
TAP	11	192	0
TAP	11	288	0
STR	12	0	7
SI_	12	0	7	96	144	3
XHO	13	0	2	192
TAP	13	192	3
TAP	13	288	3
TAP	14	0	4
TAP	14	96	4
TAP	14	192	3
TAP	14	192	5
XHO	15	0	6	192
TAP	15	192	7
TAP	15	288	7
TAP	16	0	0
TAP	16	96	0
TAP	16	192	1
TAP	16	192	7
BRK	17	0	2
TAP	17	96	2
TAP	17	192	3
TAP	17	288	3
TAP	18	0	4
TAP	18	96	4
TAP	18	192	3
TAP	18	192	5
BRK	19	0	6
TAP	19	96	6
TAP	19	192	7
TAP	19	288	7
TAP	20	0	0
TAP	20	96	0
TAP	20	192	0
TAP	20	192	7
BRK	21	0	1
TAP	21	96	1
TAP	21	192	0
TAP	21	288	0
TAP	22	0	7
TAP	22	96	7
TAP	22	192	0
TAP	22	192	6
BRK	23	0	5
TAP	23	96	5
TAP	23	192	4
TAP	23	288	4
HLD	24	0	3	96
HLD	24	0	4	96
XTP	24	192	2
XTP	24	192	5
HLD	25	0	1	192
TAP	25	192	0
HLD	26	0	6	192
TAP	26	192	7
HLD	27	0	1	192
TAP	27	192	0
HLD	28	0	6	96
HLD	28	0	7	96
TAP	28	192	6
TAP	28	192	7
HLD	29	0	5	192
TAP	29	192	4
HLD	30	0	2	192
TAP	30	192	3
HLD	31	0	5	192
TAP	31	192	4
HLD	32	0	2	96
HLD	32	0	3	96
TAP	32	192	2
TAP	32	192	3
TAP	33	0	1
TAP	33	96	1
TAP	33	192	0
TAP	33	288	0
TAP	34	0	7
TAP	34	96	7
TAP	34	192	0
TAP	34	192	6
TAP	35	0	5
TAP	35	96	5
TAP	35	192	4
TAP	35	288	4
TAP	36	0	3
TAP	36	96	3
TAP	36	192	3
TAP	36	192	4
TAP	37	0	5
TAP	37	96	5
TAP	37	192	6
TAP	37	288	6
TAP	38	0	7
TAP	38	96	7
TAP	38	192	0
TAP	38	192	6
TAP	39	0	1
TAP	39	96	1
TAP	39	192	2
TAP	39	288	2
STR	40	0	3
SCL	40	0	3	96	144	0
STR	40	0	4
SCR	40	0	4	96	144	7
TTP	41	0	0	C	1	L1
XHO	42	0	6	96
TAP	42	96	7
TAP	42	192	6
TAP	42	192	7
TAP	42	288	6
TAP	42	288	7
TAP	43	0	5
TAP	43	96	4
TAP	43	192	3
TAP	43	288	2
XHO	44	0	1	96
TAP	44	96	0
TAP	44	192	0
TAP	44	192	1
TAP	44	288	0
TAP	44	288	1
STR	45	0	2
SV_	45	0	2	96	144	4
XHO	46	0	5	96
TAP	46	96	4
TAP	46	192	4
TAP	46	192	5
TAP	46	288	4
TAP	46	288	5
TAP	47	0	6
TAP	47	96	7
TAP	47	192	0
TAP	47	288	1
XHO	48	0	2	96
TAP	48	96	3
TAP	48	192	2
TAP	48	192	3
TAP	48	288	2
TAP	48	288	3
STR	49	0	4
SI_	49	0	4	96	144	7
BRK	50	0	0
BRK	50	0	1
TAP	50	96	0
TAP	50	96	1
TAP	50	192	2
TAP	50	240	2
TAP	50	288	3
TAP	51	0	4
TAP	51	0	5
TAP	51	96	4
TAP	51	96	5
TAP	51	192	6
TAP	51	240	6
TAP	51	288	7
BRK	52	0	0
BRK	52	0	1
TAP	52	96	0
TAP	52	96	1
TAP	52	192	2
TAP	52	240	2
TAP	52	288	3
TAP	53	0	3
TAP	53	0	4
TAP	53	96	2
TAP	53	96	5
TAP	53	192	1
TAP	53	192	6
BRK	54	0	6
BRK	54	0	7
TAP	54	96	6
TAP	54	96	7
TAP	54	192	5
TAP	54	240	5
TAP	54	288	4
TAP	55	0	2
TAP	55	0	3
TAP	55	96	2
TAP	55	96	3
TAP	55	192	1
TAP	55	240	1
TAP	55	288	0
BRK	56	0	6
BRK	56	0	7
TAP	56	96	6
TAP	56	96	7
TAP	56	192	5
TAP	56	240	5
TAP	56	288	4
HLD	57	0	3	192
HLD	57	0	4	192
TTP	58	0	4	B	0	L1
TTP	58	192	5	B	0	L1
TTP	59	0	6	B	0	L1
TTP	59	0	6	E	0	L1
TTP	60	0	1	E	0	L1
TTP	60	192	1	B	0	L1
TTP	61	0	2	B	0	L1
TTP	61	0	2	E	0	L1
TTP	62	0	4	B	0	L1
TTP	62	0	5	E	0	L1
TTP	62	192	6	E	0	L1
TTP	63	0	7	B	0	L1
TTP	63	0	7	E	0	L1
TTP	64	0	0	B	0	L1
TTP	64	0	1	E	0	L1
TTP	64	192	2	E	0	L1
TTP	65	0	3	B	0	L1
TTP	65	0	3	E	0	L1
HLD	66	0	5	192
HLD	66	192	4	192
HLD	67	0	3	192
TAP	67	192	2
HLD	68	0	1	192
HLD	68	192	0	192
HLD	69	0	7	192
TAP	69	192	6
HLD	70	0	5	96
TAP	70	96	4
TAP	70	192	4
TAP	70	192	5
HLD	71	0	2	96
TAP	71	96	3
TAP	71	192	2
TAP	71	192	3
TAP	72	0	4
TAP	72	96	4
TAP	72	192	3
TAP	72	288	3
STR	73	0	3
SI_	73	0	3	96	144	0
STR	73	0	4
SI_	73	0	4	96	144	7
TTP	74	0	0	C	1	L1
STR	75	0	6
SCL	75	0	6	96	144	3
TAP	76	0	2
TAP	76	96	2
TAP	76	192	2
TAP	76	192	3
STR	77	0	1
SCR	77	0	1	96	144	4
TAP	78	0	5
TAP	78	96	5
TAP	78	192	4
TAP	78	192	5
STR	79	0	6
SV_	79	0	6	96	144	3
TAP	80	0	2
TAP	80	96	2
TAP	80	192	2
TAP	80	192	3
STR	81	0	1
SV_	81	0	1	96	144	4
STR	82	0	4
SXR	82	0	4	96	480	1
STR	82	0	5
SXL	82	0	5	96	480	0

T_REC_TAP	192
T_REC_BRK	12
T_REC_XTP	6
T_REC_HLD	22
T_REC_XHO	8
T_REC_STR	16
T_REC_BST	0
T_REC_XST	0
T_REC_TTP	20
T_REC_THO	0
T_REC_SLD	16
T_REC_ALL	292
T_NUM_TAP	234
T_NUM_BRK	12
T_NUM_HLD	30
T_NUM_SLD	16
T_NUM_ALL	292
T_JUDGE_TAP	246
T_JUDGE_HLD	96
T_JUDGE_SLD	16
T_JUDGE_ALL	358
TTM_EACHPAIRS	55
TTM_SCR_TAP	117000
TTM_SCR_BRK	31200
TTM_SCR_HLD	30000
TTM_SCR_SLD	24000
TTM_SCR_ALL	202200
TTM_SCR_S	195000
TTM_SCR_SS	201000
TTM_RAT_ACV	10059

