VERSION	0.00.00	1.03.00
FES_MODE	0
BPM_DEF	148.000	148.000	148.000	148.000
MET_DEF	4	4
RESOLUTION	384
CLK_DEF	384
COMPATIBLE_CODE	MA2

BPM	0	0	148.000
MET	0	0	4	4

TAP	1	0	0
TAP	1	192	0
TAP	2	0	0
HLD	3	0	0	384
TAP	5	0	7
TAP	5	192	7
TAP	6	0	7
HLD	7	0	7	384
BRK	9	0	0
TAP	9	192	0
TAP	10	0	1
TAP	10	192	1
XTP	11	0	2
TAP	11	192	2
XTP	12	0	3
XTP	12	0	4
BRK	13	0	4
TAP	13	192	4
TAP	14	0	5
TAP	14	192	5
XTP	15	0	6
TAP	15	192	6
TAP	16	0	0
TAP	16	0	7
BRK	17	0	7
TAP	17	192	7
TAP	18	0	6
TAP	18	192	6
XTP	19	0	5
TAP	19	192	5
TAP	20	0	3
TAP	20	0	4
XTP	20	192	3
XTP	20	192	4
BRK	21	0	3
TAP	21	192	3
XTP	22	0	2
TAP	22	192	2
TAP	23	0	1
TAP	23	192	1
TAP	24	0	0
TAP	24	0	7
XTP	24	192	0
XTP	24	192	7
STR	25	0	0
SI_	25	0	0	96	288	3
STR	27	0	7
SI_	27	0	7	96	288	4
STR	29	0	0
SI_	29	0	0	96	288	4
STR	31	0	7
SI_	31	0	7	96	288	3
TTP	33	0	0	B	0	L1
TTP	34	0	1	B	0	L1
TTP	35	0	2	B	0	L1
TTP	36	0	3	B	0	L1
TTP	37	0	4	B	0	L1
TTP	38	0	5	B	0	L1
TTP	39	0	6	B	0	L1
THO	40	0	0	384	C	1	L1
BRK	42	0	7
TAP	42	96	7
TAP	42	192	7
TAP	43	0	6
TAP	43	192	6
XTP	44	0	5
TAP	44	96	5
TAP	44	192	5
TAP	45	0	3
TAP	45	0	4
XTP	45	192	3
XTP	45	192	4
BRK	46	0	3
TAP	46	96	3
TAP	46	192	3
TAP	47	0	2
TAP	47	192	2
XTP	48	0	1
TAP	48	96	1
TAP	48	192	1
TAP	49	0	0
TAP	49	0	7
TAP	49	192	0
TAP	49	192	7
BRK	50	0	0
TAP	50	96	0
TAP	50	192	0
TAP	51	0	1
TAP	51	96	1
TAP	51	192	1
XTP	52	0	2
TAP	52	96	2
TAP	52	192	2
TAP	53	0	3
TAP	53	96	3
TAP	53	192	3
TAP	53	192	4
BRK	54	0	4
TAP	54	96	4
TAP	54	192	4
TAP	55	0	5
TAP	55	96	5
TAP	55	192	5
TAP	56	0	6
TAP	56	96	6
TAP	56	192	6
TAP	57	0	7
TAP	57	96	7
TAP	57	192	0
TAP	57	192	7
HLD	58	0	1	384
HLD	60	0	0	384
HLD	62	0	7	384
HLD	64	0	6	384
HLD	66	0	6	384
HLD	66	0	7	384
HLD	68	0	0	384
HLD	68	0	1	384
HLD	70	0	2	384
HLD	70	0	3	384
HLD	72	0	4	384
HLD	72	0	5	384
TTP	74	0	0	C	1	L1
TTP	75	0	0	B	0	L1
TTP	75	0	1	B	0	L1
TTP	76	0	2	B	0	L1
TTP	76	0	3	B	0	L1
TTP	77	0	4	B	0	L1
TTP	77	0	5	B	0	L1
TTP	78	0	6	B	0	L1
TTP	78	0	7	B	0	L1
TTP	79	0	4	B	0	L1
TTP	79	0	5	B	0	L1
TTP	79	0	6	E	0	L1
TTP	80	0	2	B	0	L1
TTP	80	0	2	E	0	L1
TTP	80	0	3	B	0	L1
TTP	81	0	0	B	0	L1
TTP	81	0	1	E	0	L1
TTP	81	0	7	B	0	L1
TTP	81	0	7	E	0	L1
THO	82	0	0	768	C	0	L1
TTP	82	0	1	B	0	L1
TTP	82	0	2	B	0	L1
TTP	82	0	5	B	0	L1
TTP	82	0	6	B	0	L1

T_REC_TAP	69
T_REC_BRK	8
T_REC_XTP	15
T_REC_HLD	14
T_REC_XHO	0
T_REC_STR	4
T_REC_BST	0
T_REC_XST	0
T_REC_TTP	30
T_REC_THO	2
T_REC_SLD	4
T_REC_ALL	146
T_NUM_TAP	118
T_NUM_BRK	8
T_NUM_HLD	16
T_NUM_SLD	4
T_NUM_ALL	146
T_JUDGE_TAP	126
T_JUDGE_HLD	136
T_JUDGE_SLD	4
T_JUDGE_ALL	266
TTM_EACHPAIRS	16
TTM_SCR_TAP	59000
TTM_SCR_BRK	20800
TTM_SCR_HLD	16000
TTM_SCR_SLD	6000
TTM_SCR_ALL	101800
TTM_SCR_S	98000
TTM_SCR_SS	101000
TTM_RAT_ACV	10079

