VERSION	0.00.00	1.03.00
FES_MODE	0
BPM_DEF	185.000	185.000	185.000	185.000
MET_DEF	4	4
RESOLUTION	384
CLK_DEF	384
COMPATIBLE_CODE	MA2

BPM	0	0	185.000
MET	0	0	4	4

TAP	1	192	0
STR	1	192	4
SXL	1	192	4	96	864	7
HLD	4	0	3	192
HLD	4	192	2	192
HLD	5	0	1	192
STR	5	192	0
SXL	5	192	0	96	864	3
HLD	8	0	7	192
STR	8	192	6
SXL	8	192	6	96	288	1
TAP	10	0	1
TAP	10	0	5
TAP	10	96	3
TAP	10	96	7
TAP	10	192	2
TAP	10	192	6
TAP	10	288	0
TAP	10	288	4
TAP	11	0	2
TAP	11	0	6
TAP	11	96	0
TAP	11	96	4
TAP	11	192	3
TAP	11	192	7
TAP	11	288	1
TAP	11	288	5
TAP	11	336	1
TAP	12	0	1
TAP	12	0	5
TAP	12	96	3
TAP	12	96	7
TAP	12	192	2
TAP	12	192	6
TAP	12	288	0
TAP	12	288	4
TAP	13	0	7
TAP	13	24	0
TAP	13	48	1
TAP	13	72	2
TAP	13	96	3
TAP	13	144	0
TAP	13	168	7
TAP	13	192	6
TAP	13	216	5
TAP	13	240	4
BRK	13	288	7
STR	14	0	1
SI_	14	0	1	96	48	4
TAP	14	0	5
STR	14	96	7
SI_	14	96	7	96	48	5
STR	14	192	0
SI_	14	192	0	96	48	4
STR	14	288	7
SI_	14	288	7	96	48	3
STR	15	0	1
SI_	15	0	1	96	48	5
STR	15	96	6
SI_	15	96	6	96	48	3
TAP	15	192	2
TAP	15	288	0
TAP	15	336	0
TAP	16	0	3
STR	16	0	6
SI_	16	0	6	96	48	3
STR	16	96	1
SI_	16	96	1	96	48	5
STR	16	192	7
SI_	16	192	7	96	48	3
STR	16	288	0
SI_	16	288	0	96	48	5
STR	17	0	6
SI_	17	0	6	96	48	2
STR	17	96	0
SI_	17	96	0	96	48	3
TAP	17	192	6
TAP	17	240	6
TAP	17	288	4
STR	18	0	1
SI_	18	0	1	96	48	5
TAP	18	0	5
STR	18	96	7
SI_	18	96	7	96	48	4
STR	18	192	0
SI_	18	192	0	96	48	4
STR	18	288	7
SI_	18	288	7	96	48	3
STR	19	0	1
SI_	19	0	1	96	48	5
STR	19	96	6
SI_	19	96	6	96	48	3
TAP	19	192	2
TAP	19	288	0
TAP	19	336	0
TAP	20	0	5
TAP	20	48	7
TAP	20	96	5
TAP	20	144	2
TAP	20	192	0
TAP	20	240	2
TAP	20	288	7
TAP	20	336	7
TAP	21	0	1
TAP	21	48	1
TAP	21	96	6
TAP	21	144	6
TAP	21	192	0
TAP	21	192	7
TAP	21	240	0
TAP	21	240	7
TAP	21	288	0
TAP	21	288	7
STR	22	0	1
SV_	22	0	1	96	96	3
TAP	22	0	6
STR	22	96	3
SUL	22	96	3	96	96	7
HLD	22	192	5	288
TAP	23	0	4
TAP	23	96	4
TAP	23	144	3
TAP	23	192	2
TAP	23	240	3
TAP	23	288	4
TAP	23	336	5
STR	24	0	3
SSL	24	0	3	96	96	7
STR	24	0	4
SSR	24	0	4	96	96	0
XTP	24	288	0
XTP	24	288	7
XHO	24	336	0	96
XHO	24	336	7	96
TAP	25	96	1
STR	25	96	6
SI_	25	96	6	96	48	4
TAP	25	192	0
STR	25	192	6
SI_	25	192	6	96	48	0
TAP	25	288	2
TAP	25	288	6
TAP	26	0	3
TAP	26	0	5
TAP	26	48	4
TAP	26	96	3
TAP	26	96	5
TAP	26	192	2
TAP	26	192	6
TAP	26	240	7
TAP	26	288	7
TAP	26	336	0
TAP	27	0	1
TAP	27	48	2
TAP	27	96	3
TAP	27	144	4
TAP	27	192	5
TAP	27	240	6
STR	27	288	7
SSR	27	288	7	96	192	3
TAP	28	0	3
TAP	28	0	7
STR	28	288	3
SSR	28	288	3	96	192	7
TAP	29	288	0
HLD	29	288	7	864
TAP	30	0	6
TAP	30	48	6
TAP	30	96	6
TAP	30	144	6
TAP	30	192	6
TAP	30	240	6
TAP	30	288	6
TAP	30	336	6
TAP	31	0	5
TAP	31	48	5
TAP	31	96	4
TAP	31	144	4
TAP	31	192	3
TAP	31	240	3
TAP	31	288	4
TAP	31	312	3
TAP	31	336	2
TAP	31	360	1
STR	32	0	0
SXR	32	0	0	96	192	5
TAP	32	192	2
STR	33	0	3
SXR	33	0	3	96	192	0
TAP	33	0	4
TAP	33	192	5
STR	34	0	6
SXR	34	0	6	96	192	3
TAP	34	0	7
TAP	34	192	0
HLD	35	0	1	192
STR	35	0	4
SCR	35	0	4	96	96	7
XTP	35	288	7
XTP	35	300	6
XTP	35	312	5
XTP	35	324	4
XTP	35	336	3
XTP	35	348	2
XTP	35	360	1
XTP	35	372	0
XST	36	0	7
SF_	36	0	7	96	96	3
TAP	36	288	1
TAP	36	288	7
STR	37	0	4
SF_	37	0	4	96	96	0
TAP	37	288	2
TAP	37	288	4
TAP	38	0	1
STR	38	0	3
SCR	38	0	3	96	96	6
TAP	38	96	2
TAP	38	192	2
TAP	38	288	2
TAP	39	0	5
STR	39	0	7
SCR	39	0	7	96	96	2
TAP	39	96	6
TAP	39	192	6
TAP	39	288	6
TAP	40	0	0
TAP	40	0	4
TAP	40	48	0
TAP	40	48	4
TAP	40	96	1
TAP	40	96	5
TAP	40	144	1
TAP	40	144	5
TAP	40	192	2
TAP	40	192	6
TAP	40	240	2
TAP	40	240	6
TAP	40	288	3
TAP	40	288	7
TAP	40	336	3
TAP	40	336	7
XTP	41	0	0
XTP	41	0	4
XTP	41	48	2
XTP	41	48	6
XTP	41	96	0
XTP	41	96	4
STR	41	192	0
SI_	41	192	0	96	48	4
STR	41	192	1
SI_	41	192	1	96	48	4
STR	42	0	7
SI_	42	0	7	96	48	2
TAP	42	96	6
STR	42	144	6
SI_	42	144	6	96	48	3
TAP	42	240	2
TAP	42	288	1
HLD	42	336	0	96
TAP	43	48	2
TAP	43	96	0
HLD	43	144	6	96
BRK	43	240	0
TAP	43	288	1
TAP	43	336	2
TAP	43	336	4
TAP	44	48	3
TAP	44	48	5
TAP	44	96	6
STR	44	144	7
SI_	44	144	7	96	48	3
STR	44	240	6
SI_	44	240	6	96	48	2
STR	44	336	5
SI_	44	336	5	96	48	1
HLD	45	48	0	96
TAP	45	144	1
TAP	45	192	3
TAP	45	240	5
TAP	45	288	6
TAP	45	288	7
STR	46	0	0
SI_	46	0	0	96	48	5
TAP	46	96	1
STR	46	144	1
SI_	46	144	1	96	48	4
TAP	46	240	4
TAP	46	288	6
HLD	46	336	0	96
TAP	47	48	2
TAP	47	96	0
HLD	47	144	6	96
BRK	47	240	0
TAP	47	288	4
STR	47	336	1
SCR	47	336	1	96	48	4
TAP	48	48	6
TAP	48	96	6
HLD	48	144	7	96
HLD	48	240	5	96
TAP	48	336	3
TAP	49	0	4
TAP	49	0	5
TAP	49	48	5
TAP	49	48	6
XTP	49	96	0
TAP	49	96	7
XTP	49	192	0
TAP	49	192	7
XTP	49	240	1
BRK	49	288	0
BRK	49	288	7
STR	50	0	7
SI_	50	0	7	96	48	2
TAP	50	96	3
STR	50	144	3
SI_	50	144	3	96	48	6
TAP	50	240	4
TAP	50	288	5
HLD	50	336	5	96
TAP	51	48	4
TAP	51	96	3
HLD	51	144	2	96
BRK	51	240	1
TAP	51	288	2
STR	51	336	2
SCR	51	336	2	96	48	5
STR	52	48	7
SCR	52	48	7	96	48	2
STR	52	144	5
SCR	52	144	5	96	48	0
HLD	52	240	1	96
TAP	52	336	2
TAP	53	0	4
TAP	53	48	6
TAP	53	144	0
TAP	53	144	7
TAP	53	192	0
TAP	53	192	7
BRK	53	288	0
BRK	53	288	1
STR	54	0	0
SI_	54	0	0	96	48	5
TAP	54	96	4
STR	54	144	4
SI_	54	144	4	96	48	1
TAP	54	240	3
TAP	54	288	2
HLD	54	336	2	96
TAP	55	48	3
HLD	55	144	6	96
HLD	55	144	7	96
TAP	55	288	5
STR	55	336	5
SI_	55	336	5	96	48	1
STR	56	48	4
SI_	56	48	4	96	48	0
HLD	56	144	7	96
TAP	56	240	6
TAP	56	288	5
TAP	56	336	4
HLD	57	0	4	192
BRK	57	288	0
STR	58	0	1
SI_	58	0	1	96	48	3
TAP	58	0	6
STR	58	96	0
SI_	58	96	0	96	48	4
TAP	58	96	1
TAP	58	192	0
STR	58	192	7
SI_	58	192	7	96	48	3
STR	58	288	6
SI_	58	288	6	96	48	4
TAP	58	288	7
TAP	59	0	6
STR	59	0	7
SI_	59	0	7	96	48	3
STR	59	96	0
SI_	59	96	0	96	48	4
TAP	59	96	7
TAP	59	192	0
TAP	59	192	6
XTP	59	240	5
XTP	59	288	7
STR	60	0	0
SI_	60	0	0	96	48	4
STR	60	0	7
SI_	60	0	7	96	48	5
STR	60	96	0
SI_	60	96	0	96	48	2
STR	60	96	7
SI_	60	96	7	96	48	3
STR	60	192	0
SI_	60	192	0	96	48	4
STR	60	192	7
SI_	60	192	7	96	48	5
STR	60	288	0
SI_	60	288	0	96	48	2
STR	60	288	7
SI_	60	288	7	96	48	3
TAP	61	0	0
TAP	61	0	7
TAP	61	96	1
TAP	61	96	4
TAP	61	192	5
XTP	61	240	2
XTP	61	240	7
XTP	61	288	2
XTP	61	288	7
TAP	62	0	1
STR	62	0	6
SI_	62	0	6	96	48	4
TAP	62	96	6
STR	62	96	7
SI_	62	96	7	96	48	3
STR	62	192	0
SI_	62	192	0	96	48	4
TAP	62	192	7
TAP	62	288	0
STR	62	288	1
SI_	62	288	1	96	48	3
STR	63	0	0
SI_	63	0	0	96	48	4
TAP	63	0	1
TAP	63	96	0
STR	63	96	7
SI_	63	96	7	96	48	3
TAP	63	192	1
TAP	63	192	7
XTP	63	240	0
STR	63	288	0
SI_	63	288	0	96	48	3
STR	63	288	7
SI_	63	288	7	96	48	4
STR	64	0	0
SCL	64	0	0	96	48	5
STR	64	0	7
SCR	64	0	7	96	48	2
STR	64	96	0
SI_	64	96	0	96	48	4
STR	64	96	7
SI_	64	96	7	96	48	3
TAP	64	192	0
TAP	64	192	7
XTP	64	288	2
XTP	64	288	5
XTP	64	336	2
XTP	64	336	5
STR	65	48	3
SI_	65	48	3	96	48	0
STR	65	48	4
SI_	65	48	4	96	48	7
TAP	65	144	3
TAP	65	144	4
BRK	65	240	1
BRK	65	240	6
BRK	65	288	1
BRK	65	288	6
STR	66	0	1
SI_	66	0	1	96	48	3
TAP	66	0	3
TAP	66	96	1
TAP	66	96	4
STR	66	192	1
SI_	66	192	1	96	48	5
TAP	66	192	5
TAP	66	288	1
TAP	66	288	6
STR	67	0	1
SI_	67	0	1	96	48	7
TAP	67	0	7
TAP	67	96	1
TAP	67	96	6
TAP	67	192	1
TAP	67	192	5
TAP	67	288	7
TAP	67	336	7
TAP	68	0	4
STR	68	0	6
SI_	68	0	6	96	48	4
TAP	68	96	3
TAP	68	96	6
TAP	68	192	2
STR	68	192	6
SI_	68	192	6	96	48	2
TAP	68	288	1
TAP	68	288	6
TAP	69	0	0
TAP	69	0	6
XTP	69	48	7
XTP	69	72	7
XTP	69	96	7
TAP	69	144	0
TAP	69	144	6
TAP	69	192	0
TAP	69	192	6
TAP	69	240	1
TAP	69	240	5
TAP	69	288	2
TAP	69	288	4
TAP	69	336	2
TAP	69	336	4
STR	70	0	1
SI_	70	0	1	96	288	5
TAP	70	192	3
TAP	71	0	2
TAP	71	96	3
TAP	71	144	3
TAP	71	192	4
TAP	71	288	5
STR	72	0	6
SI_	72	0	6	96	288	2
TAP	72	192	4
TAP	73	0	6
STR	73	96	7
SI_	73	96	7	96	48	4
TAP	73	144	7
STR	73	192	7
SI_	73	192	7	96	48	2
STR	74	0	6
SI_	74	0	6	96	288	2
TAP	74	192	4
TAP	75	0	5
TAP	75	96	4
TAP	75	144	4
TAP	75	192	3
TAP	75	288	2
TAP	76	0	1
TAP	76	0	6
TAP	76	48	2
TAP	76	72	3
TAP	76	96	2
TAP	76	144	1
TAP	76	144	4
TAP	76	192	0
TAP	76	240	5
TAP	76	264	4
TAP	76	288	5
TAP	76	336	3
TAP	76	336	6
TAP	77	0	7
TAP	77	48	2
TAP	77	72	3
TAP	77	96	2
TAP	77	144	1
TAP	77	144	4
TAP	77	192	0
TAP	77	240	5
TAP	77	264	4
TAP	77	288	5
TAP	77	336	3
TAP	77	336	6
HLD	78	0	7	576
TAP	78	48	6
TAP	78	96	6
TAP	78	144	6
TAP	78	192	6
TAP	78	240	6
TAP	78	288	6
TAP	78	336	6
TAP	79	0	6
TAP	79	48	6
STR	79	96	6
SUL	79	96	6	96	96	1
TAP	79	144	6
TAP	79	192	6
STR	80	0	0
SCL	80	0	0	96	48	6
SCR	80	0	0	96	48	2
STR	80	192	5
SI_	80	192	5	96	48	2
SI_	80	192	5	96	48	7
STR	81	0	1
SI_	81	0	1	96	48	3
SI_	81	0	1	96	48	6
STR	81	192	4
SI_	81	192	4	96	48	1
SI_	81	192	4	96	48	6
STR	82	0	0
SI_	82	0	0	96	48	2
SI_	82	0	0	96	48	5
STR	82	192	7
SCL	82	192	7	96	48	5
SCR	82	192	7	96	48	1
STR	83	0	2
SI_	83	0	2	96	48	7
STR	83	0	5
SI_	83	0	5	96	48	0
TAP	83	192	1
TAP	83	192	6
STR	83	288	1
SCR	83	288	1	96	192	7
STR	83	288	6
SCL	83	288	6	96	192	0
BRK	84	0	1
BRK	84	0	6
STR	84	288	1
SCR	84	288	1	96	192	7
STR	84	288	6
SCL	84	288	6	96	192	0
BRK	85	0	1
BRK	85	0	6
TAP	85	288	1
TAP	85	288	6
TAP	86	0	0
TAP	86	0	2
TAP	86	48	1
TAP	86	96	0
TAP	86	96	2
TAP	86	192	5
TAP	86	192	7
TAP	86	240	6
TAP	86	288	5
TAP	86	288	7
TAP	87	0	0
TAP	87	48	1
TAP	87	96	2
TAP	87	144	3
TAP	87	192	4
TAP	87	240	5
TAP	87	288	6
TAP	87	336	7
TAP	88	0	0
TAP	88	24	7
TAP	88	48	1
TAP	88	72	6
TAP	88	96	2
TAP	88	112	3
TAP	88	128	4
TAP	88	144	5
TAP	88	160	6
TAP	88	176	7
XTP	88	192	0
XTP	88	204	1
XTP	88	216	2
XTP	88	228	3
XTP	88	240	4
XTP	88	252	5
XTP	88	264	6
XTP	88	276	7
XTP	88	288	0
XTP	88	300	1
XTP	88	312	2
XTP	88	324	3
XTP	88	336	4
XTP	88	348	5
XTP	88	360	6
XTP	88	372	7
XTP	89	0	0
TAP	89	288	4
HLD	90	0	5	672
TTP	90	288	0	C	0	M1
TTP	91	0	1	B	0	M1
TTP	91	0	2	B	0	M1
TAP	91	288	3
HLD	92	0	2	672
THO	92	288	0	96	C	0	M1
TAP	93	288	3
HLD	94	0	2	480
TAP	94	0	4
TTP	94	288	1	B	0	M1
TTP	94	288	2	B	0	M1
TTP	95	0	0	C	0	M1
BRK	95	192	0
BRK	95	192	6
STR	95	288	6
SI_	95	288	6	96	48	4
STR	95	288	7
SI_	95	288	7	96	48	3
XTP	96	0	6
XTP	96	0	7
STR	96	96	0
SI_	96	96	0	96	48	4
STR	96	96	1
SI_	96	96	1	96	48	3
XTP	96	192	0
XTP	96	192	1
XTP	96	288	2
XTP	96	288	6
XTP	96	336	2
XTP	96	336	6
STR	97	192	3
SI_	97	192	3	96	48	0
STR	97	192	4
SI_	97	192	4	96	48	7
BRK	97	288	3
BRK	97	288	4
STR	98	0	0
SCR	98	0	0	96	48	2
STR	98	96	0
SI_	98	96	0	96	48	4
TAP	98	96	4
TAP	98	144	5
TAP	98	192	5
TAP	98	288	6
STR	98	336	6
SI_	98	336	6	96	48	2
TAP	99	48	2
TAP	99	96	1
STR	99	144	1
SI_	99	144	1	96	48	4
TAP	99	240	5
TAP	99	288	5
TAP	99	336	6
STR	100	0	7
SI_	100	0	7	96	48	3
TAP	100	96	1
STR	100	144	1
SCR	100	144	1	96	48	3
STR	100	240	1
SI_	100	240	1	96	48	5
TAP	100	240	5
TAP	100	336	7
STR	101	48	6
SCL	101	48	6	96	48	4
TAP	101	144	2
STR	101	144	6
SI_	101	144	6	96	48	2
XTP	101	240	1
XTP	101	288	1
STR	102	0	6
SCL	102	0	6	96	48	3
TAP	102	96	0
STR	102	144	0
SCR	102	144	0	96	48	3
TAP	102	240	6
TAP	102	288	7
STR	102	336	7
SI_	102	336	7	96	48	3
STR	103	48	1
SI_	103	48	1	96	48	5
TAP	103	144	6
STR	103	192	6
SI_	103	192	6	96	48	3
TAP	103	288	2
TAP	103	336	2
STR	104	0	4
SI_	104	0	4	96	48	6
TAP	104	96	3
STR	104	144	3
SI_	104	144	3	96	48	1
STR	104	240	7
SCL	104	240	7	96	144	1
TTP	104	336	0	C	1	M1
BRK	105	288	0
TAP	105	288	7
TAP	106	0	1
TAP	106	0	5
TAP	106	48	6
TAP	106	72	7
TAP	106	96	6
TAP	106	144	6
TAP	106	192	0
TAP	106	192	6
TAP	106	240	6
TAP	106	288	3
TAP	106	288	6
TAP	106	336	6
BRK	107	0	2
TAP	107	0	6
TAP	107	48	1
TAP	107	72	0
TAP	107	96	1
TAP	107	144	1
TAP	107	192	1
TAP	107	192	7
TAP	107	240	1
TAP	107	288	1
TAP	107	288	4
TAP	107	336	1
TAP	108	0	1
BRK	108	0	5
TAP	108	48	6
TAP	108	72	7
TAP	108	96	6
TAP	108	144	6
TAP	108	192	0
TAP	108	192	6
TAP	108	240	6
TAP	108	288	3
TAP	108	288	6
TAP	108	336	6
BRK	109	0	1
BRK	109	0	3
BRK	109	72	4
BRK	109	72	6
BRK	109	144	0
BRK	109	144	2
BRK	109	216	5
BRK	109	216	7
BRK	109	288	1
BRK	109	288	6
TAP	110	0	5
TAP	110	24	4
TAP	110	48	5
TAP	110	96	3
TAP	110	96	6
TAP	110	144	3
TAP	110	144	6
TAP	110	192	2
TAP	110	216	3
TAP	110	240	2
TAP	110	264	3
TAP	110	288	2
TAP	110	336	1
TAP	110	336	4
TAP	111	0	0
TAP	111	24	7
TAP	111	48	0
TAP	111	72	7
TAP	111	96	0
TAP	111	120	7
TAP	111	144	0
TAP	111	168	7
TAP	111	192	0
TAP	111	204	1
TAP	111	216	2
TAP	111	228	3
TAP	111	240	4
TAP	111	252	5
TAP	111	264	6
TAP	111	276	7
STR	111	288	0
SF_	111	288	0	96	48	4
TAP	111	300	1
TAP	111	312	2
TAP	111	324	3
TAP	111	336	4
TAP	111	348	5
TAP	111	360	6
TAP	111	372	7
TAP	112	0	0
XTP	112	144	3
XTP	112	144	5
STR	112	240	2
SCL	112	240	2	96	96	7
STR	112	240	4
SCR	112	240	4	96	96	7
STR	113	192	3
SCL	113	192	3	96	48	0
STR	113	192	4
SCR	113	192	4	96	48	7
BRK	113	288	3
BRK	113	288	4
STR	114	0	1
SI_	114	0	1	96	48	5
TAP	114	0	6
STR	114	96	0
SI_	114	96	0	96	48	4
TAP	114	96	1
TAP	114	192	0
STR	114	192	7
SI_	114	192	7	96	48	3
STR	114	288	6
SI_	114	288	6	96	48	2
TAP	114	288	7
TAP	115	0	6
STR	115	0	7
SI_	115	0	7	96	48	3
STR	115	96	0
SI_	115	96	0	96	48	4
TAP	115	96	7
TAP	115	192	0
TAP	115	192	6
XTP	115	240	5
XST	115	288	0
SI_	115	288	0	96	48	4
XST	115	288	7
SI_	115	288	7	96	48	5
STR	116	0	0
SI_	116	0	0	96	48	2
STR	116	0	7
SI_	116	0	7	96	48	3
TAP	116	96	0
TAP	116	96	7
TAP	116	192	1
TAP	116	192	4
TAP	116	240	1
TAP	116	240	4
TAP	116	288	2
TAP	116	288	5
TAP	116	336	2
TAP	116	336	5
TAP	117	0	3
TAP	117	0	6
BRK	117	48	7
TAP	117	60	0
TAP	117	72	1
TAP	117	84	2
TAP	117	96	3
BRK	117	144	0
TAP	117	156	7
TAP	117	168	6
TAP	117	180	5
TAP	117	192	4
BRK	117	240	7
BRK	117	288	7
STR	118	0	6
SI_	118	0	6	96	48	2
TAP	118	48	6
STR	118	96	0
SI_	118	96	0	96	48	4
TAP	118	144	0
STR	118	192	7
SI_	118	192	7	96	48	3
TAP	118	240	7
STR	118	288	1
SI_	118	288	1	96	48	5
TAP	118	336	1
STR	119	0	6
SI_	119	0	6	96	48	2
TAP	119	48	6
STR	119	96	0
SI_	119	96	0	96	48	4
TAP	119	144	0
TAP	119	192	7
TAP	119	240	7
BRK	119	288	3
TAP	119	288	7
TAP	120	0	1
TAP	120	24	5
TAP	120	48	1
TAP	120	72	5
TAP	120	96	0
TAP	120	120	4
TAP	120	144	0
TAP	120	168	4
BRK	120	192	0
TAP	120	204	1
TAP	120	216	2
TAP	120	228	3
TAP	120	240	4
BRK	120	288	7
TAP	120	300	6
TAP	120	312	5
TAP	120	324	4
STR	120	336	3
SI_	120	336	3	96	48	7
STR	121	48	3
SI_	121	48	3	96	48	0
SI_	121	48	3	96	48	6
STR	121	144	3
SXR	121	144	3	96	96	4
BRK	121	240	7
BRK	121	288	7

T_REC_TAP	488
T_REC_BRK	45
T_REC_XTP	63
T_REC_HLD	26
T_REC_XHO	2
T_REC_STR	151
T_REC_BST	0
T_REC_XST	3
T_REC_TTP	7
T_REC_THO	1
T_REC_SLD	161
T_REC_ALL	947
T_NUM_TAP	712
T_NUM_BRK	45
T_NUM_HLD	29
T_NUM_SLD	161
T_NUM_ALL	947
T_JUDGE_TAP	757
T_JUDGE_HLD	132
T_JUDGE_SLD	161
T_JUDGE_ALL	1050
TTM_EACHPAIRS	178
TTM_SCR_TAP	356000
TTM_SCR_BRK	117000
TTM_SCR_HLD	29000
TTM_SCR_SLD	241500
TTM_SCR_ALL	743500
TTM_SCR_S	716850
TTM_SCR_SS	739000
TTM_RAT_ACV	10060

