VERSION	0.00.00	1.03.00
FES_MODE	0
BPM_DEF	185.000	185.000	185.000	185.000
MET_DEF	4	4
RESOLUTION	384
CLK_DEF	384
COMPATIBLE_CODE	MA2

BPM	0	0	185.000
MET	0	0	4	4

STR	2	0	0
SI_	2	0	0	96	288	3
STR	3	0	7
SI_	3	0	7	96	288	4
STR	4	0	0
SI_	4	0	0	96	288	3
HLD	5	0	4	384
STR	6	0	3
SCL	6	0	3	96	288	0
STR	7	0	4
SCR	7	0	4	96	288	7
STR	8	0	3
SCL	8	0	3	96	288	0
HLD	9	0	7	288
TAP	9	288	0
TAP	10	0	6
TAP	10	96	5
TAP	10	144	5
TAP	10	240	3
TAP	10	288	3
TAP	10	288	4
TAP	11	0	2
TAP	11	96	1
TAP	11	144	1
TAP	11	240	0
TAP	11	240	7
TAP	11	288	0
TAP	11	288	7
TAP	12	0	1
TAP	12	0	6
TAP	12	96	4
TAP	12	96	5
TAP	12	144	4
TAP	12	144	5
TAP	12	240	3
TAP	12	240	4
STR	12	288	3
SCL	12	288	3	96	144	0
STR	12	288	4
SCR	12	288	4	96	144	7
BRK	13	288	1
BRK	13	288	6
HLD	14	0	2	576
TAP	14	96	3
TAP	14	192	3
TAP	14	288	4
TAP	15	0	3
TAP	15	96	1
TAP	15	192	3
TAP	15	288	1
TAP	15	288	4
HLD	16	0	2	384
TAP	16	96	3
TAP	16	192	3
TAP	16	288	1
TAP	17	0	3
TAP	17	96	2
TAP	17	192	0
TAP	17	192	1
TAP	17	288	2
TAP	17	288	7
HLD	18	0	1	480
TAP	18	96	0
TAP	18	192	0
TAP	18	288	2
TAP	19	0	4
TAP	19	96	2
TAP	19	192	0
TAP	19	192	1
TAP	19	288	2
TAP	19	288	7
HLD	20	0	3	96
HLD	20	0	6	96
HLD	20	192	1	96
HLD	20	192	4	96
HLD	21	0	2	96
HLD	21	0	5	96
TAP	21	192	3
TAP	21	192	4
TAP	21	288	3
TAP	21	288	4
HLD	22	0	5	480
TAP	22	96	4
TAP	22	192	4
TAP	22	288	6
TAP	23	0	4
TAP	23	96	4
TAP	23	192	4
TAP	23	192	5
TAP	23	288	3
TAP	23	288	6
HLD	24	0	5	480
TAP	24	96	4
TAP	24	192	4
TAP	24	288	6
TAP	25	0	4
TAP	25	96	4
TAP	25	192	6
TAP	25	192	7
TAP	25	288	0
TAP	25	288	5
HLD	26	0	6	576
TAP	26	96	7
TAP	26	192	5
TAP	26	288	3
TAP	27	0	5
TAP	27	96	7
TAP	27	192	0
TAP	27	288	1
TAP	27	288	5
HLD	28	0	2	96
HLD	28	0	4	96
HLD	28	192	3	96
HLD	28	192	6	96
HLD	29	0	1	96
HLD	29	0	4	96
XHO	29	192	3	192
TAP	30	0	7
TAP	30	48	7
TAP	30	96	7
TAP	30	144	7
TAP	30	192	7
TAP	30	240	7
TAP	30	288	7
TAP	30	336	7
TAP	31	0	0
TAP	31	48	1
TAP	31	96	2
TAP	31	144	3
XTP	31	192	4
XTP	31	192	5
TAP	32	0	4
STR	32	0	5
SCR	32	0	5	96	288	1
TAP	33	192	2
TAP	33	192	3
STR	34	0	2
SCL	34	0	2	96	288	6
TAP	34	0	3
XTP	35	192	2
XTP	35	192	5
HLD	36	0	1	96
HLD	36	0	4	96
TAP	36	192	2
TAP	36	192	3
HLD	37	0	3	96
HLD	37	0	6	96
TAP	37	192	4
TAP	37	192	5
HLD	38	0	2	96
HLD	38	0	3	96
HLD	38	192	4	96
HLD	38	192	5	96
TAP	39	0	4
TAP	39	0	5
TAP	39	96	3
TAP	39	144	3
TAP	39	192	5
TAP	39	240	5
TAP	39	288	2
TAP	39	336	2
TAP	40	0	6
TAP	40	48	6
TAP	40	96	1
TAP	40	144	1
XTP	40	192	0
XTP	40	216	7
XTP	40	240	0
XTP	40	264	7
XTP	40	288	0
XTP	41	0	0
XTP	41	0	7
XTP	41	48	1
XTP	41	48	6
XTP	41	96	2
XTP	41	96	5
BRK	41	288	1
BRK	41	288	6
TAP	42	0	1
TAP	42	0	6
XTP	42	96	2
XTP	42	96	3
TAP	42	192	4
TAP	42	192	5
TAP	42	288	6
TAP	42	288	7
TAP	42	336	6
TAP	42	336	7
TAP	43	0	6
TAP	43	0	7
XTP	43	96	0
XTP	43	96	1
TAP	43	192	2
TAP	43	192	3
TAP	43	288	4
TAP	43	288	5
TAP	43	336	4
TAP	43	336	5
TAP	44	0	4
TAP	44	0	5
BRK	44	96	6
BRK	44	96	7
BST	44	144	6
SI_	44	144	6	96	48	4
BRK	44	144	7
BST	44	240	7
SI_	44	240	7	96	48	3
BRK	44	336	6
TAP	45	48	1
TAP	45	48	4
TAP	45	144	2
TAP	45	144	3
TAP	45	192	2
TAP	45	192	3
TAP	45	288	3
TAP	45	288	4
TAP	46	0	1
TAP	46	0	6
XTP	46	96	4
XTP	46	96	5
TAP	46	192	2
TAP	46	192	3
TAP	46	288	0
TAP	46	288	1
TAP	46	336	0
TAP	46	336	1
TAP	47	0	0
TAP	47	0	1
XTP	47	96	6
XTP	47	96	7
TAP	47	192	4
TAP	47	192	5
TAP	47	288	2
TAP	47	288	3
TAP	47	336	2
TAP	47	336	3
TAP	48	0	2
TAP	48	0	3
XTP	48	96	0
XTP	48	96	1
XTP	48	144	0
XST	48	144	1
SI_	48	144	1	96	48	3
XST	48	240	0
SI_	48	240	0	96	48	4
XTP	48	336	1
XTP	49	48	3
XTP	49	48	6
TAP	49	144	5
TAP	49	192	4
XTP	49	240	6
XTP	49	288	6
TAP	50	0	3
TAP	50	0	7
XTP	50	96	4
XTP	50	96	6
TAP	50	192	1
TAP	50	192	3
TAP	50	288	0
TAP	50	288	7
TAP	50	336	0
TAP	50	336	7
TAP	51	0	0
TAP	51	0	7
XTP	51	96	4
XTP	51	96	6
TAP	51	192	2
TAP	51	192	3
TAP	51	288	1
TAP	51	336	1
TAP	52	0	0
TAP	52	0	1
TAP	52	96	6
TAP	52	96	7
STR	52	144	6
SI_	52	144	6	96	48	4
TAP	52	144	7
STR	52	240	7
SI_	52	240	7	96	48	2
TAP	52	336	6
TAP	53	48	1
TAP	53	48	3
TAP	53	144	0
TAP	53	144	1
TAP	53	192	0
TAP	53	192	1
TAP	53	288	2
TAP	53	288	7
TAP	54	0	1
TAP	54	0	6
XTP	54	96	3
XTP	54	96	4
TAP	54	192	4
TAP	54	192	6
TAP	54	288	2
TAP	54	288	3
TAP	54	336	2
TAP	54	336	3
TAP	55	0	2
TAP	55	0	3
XTP	55	96	0
XTP	55	96	7
TAP	55	192	1
TAP	55	192	3
TAP	55	288	3
TAP	55	288	4
TAP	56	0	1
TAP	56	0	6
TAP	56	96	4
TAP	56	96	5
TAP	56	144	4
TAP	56	144	5
STR	56	240	2
SCL	56	240	2	96	192	5
TAP	56	240	3
BRK	57	288	0
BRK	57	288	7
STR	58	0	1
SI_	58	0	1	96	48	4
STR	58	96	0
SI_	58	96	0	96	48	5
STR	58	192	1
SI_	58	192	1	96	48	4
STR	58	288	0
SI_	58	288	0	96	48	5
STR	59	0	1
SI_	59	0	1	96	48	4
TAP	59	96	7
XTP	59	192	6
BRK	59	240	6
BRK	59	240	7
BRK	59	288	6
BRK	59	288	7
STR	60	0	6
SI_	60	0	6	96	48	3
STR	60	96	7
SI_	60	96	7	96	48	2
STR	60	192	6
SI_	60	192	6	96	48	3
STR	60	288	7
SI_	60	288	7	96	48	2
STR	61	0	6
SI_	61	0	6	96	48	3
TAP	61	96	0
XTP	61	192	1
BRK	61	240	0
BRK	61	240	1
BRK	61	288	0
BRK	61	288	1
STR	62	0	2
SI_	62	0	2	96	48	7
STR	62	96	3
SI_	62	96	3	96	48	6
STR	62	192	2
SI_	62	192	2	96	48	7
STR	62	288	3
SI_	62	288	3	96	48	6
STR	63	0	2
SI_	63	0	2	96	48	7
TAP	63	96	3
XTP	63	192	6
BRK	63	240	0
BRK	63	240	6
BRK	63	288	0
BRK	63	288	6
TAP	64	0	1
TAP	64	0	5
TAP	64	96	2
TAP	64	96	3
TAP	64	192	4
TAP	64	192	5
TAP	64	288	2
TAP	64	288	6
STR	64	336	2
SI_	64	336	2	96	48	7
STR	64	336	6
SI_	64	336	6	96	48	3
XTP	65	144	0
XTP	65	144	4
BRK	65	240	1
BRK	65	240	7
BRK	65	288	1
BRK	65	288	7
TAP	66	0	2
TAP	66	0	6
TAP	66	96	5
TAP	66	144	4
TAP	66	144	5
TAP	66	240	3
TAP	66	288	3
TAP	67	0	2
TAP	67	0	4
TAP	67	96	1
TAP	67	144	0
TAP	67	144	1
TAP	67	240	7
TAP	67	288	7
TAP	68	0	0
TAP	68	0	6
TAP	68	96	5
TAP	68	144	4
TAP	68	144	5
TAP	68	240	3
STR	68	288	3
SUR	68	288	3	96	240	5
TAP	68	288	4
HLD	70	0	6	192
HLD	70	192	4	384
TTP	71	0	5	B	0	M1
TTP	71	0	6	E	0	M1
TTP	71	192	7	B	0	M1
TTP	71	192	7	E	0	M1
HLD	72	0	1	192
HLD	72	192	3	384
TTP	73	0	2	B	0	M1
TTP	73	0	3	E	0	M1
TTP	73	192	0	B	0	M1
TTP	73	192	1	E	0	M1
TAP	74	0	6
TAP	74	0	7
TTP	74	192	2	B	0	M1
TTP	74	192	2	E	0	M1
TTP	74	192	3	B	0	M1
TTP	74	192	4	E	0	M1
TAP	75	0	0
TAP	75	0	1
TTP	75	192	4	B	0	M1
TTP	75	192	4	E	0	M1
TTP	75	192	5	B	0	M1
TTP	75	192	6	E	0	M1
THO	76	0	0	384	C	0	M1
HLD	77	0	7	192
HLD	77	192	0	576
TAP	78	0	3
TAP	78	48	3
TAP	78	96	3
TAP	78	144	3
TAP	78	192	3
TAP	78	240	3
TAP	78	288	3
TAP	78	336	3
TAP	79	0	3
TAP	79	96	2
TAP	79	96	4
TAP	79	144	2
TAP	79	144	4
TAP	79	192	2
TAP	79	192	4
TAP	79	288	3
TAP	79	288	5
STR	80	0	4
SCR	80	0	4	96	288	7
STR	81	0	1
SCR	81	0	1	96	288	4
TTP	82	0	6	B	0	M1
TTP	82	0	7	B	0	M1
TTP	82	192	3	B	0	M1
TTP	82	192	4	B	0	M1
TTP	83	0	0	B	0	M1
TTP	83	0	1	B	0	M1
TAP	83	192	7
STR	83	288	6
SCL	83	288	6	96	192	3
STR	83	288	7
SCR	83	288	7	96	192	2
STR	84	288	0
SCL	84	288	0	96	192	5
STR	84	288	1
SCR	84	288	1	96	192	4
TAP	85	288	6
TAP	85	288	7
BRK	86	0	4
BRK	86	0	5
TAP	86	96	4
TAP	86	96	5
TAP	86	192	2
TAP	86	192	3
TAP	86	288	2
TAP	86	288	3
TAP	87	0	3
TAP	87	0	4
TAP	87	96	3
TAP	87	144	3
TAP	87	192	5
TAP	87	240	5
TAP	87	288	3
TAP	87	336	3
TAP	88	0	6
TAP	88	48	6
TAP	88	96	2
TAP	88	144	2
TAP	88	192	1
TAP	88	216	7
TAP	88	240	1
TAP	88	264	7
TAP	88	288	1
TAP	88	312	7
TAP	88	336	1
TAP	88	360	7
BRK	89	0	0
HLD	90	0	2	192
TAP	90	192	3
HLD	91	0	5	192
TAP	91	192	4
HLD	92	0	2	192
TAP	92	192	3
HLD	93	0	5	192
TAP	93	192	4
HLD	94	0	2	192
TAP	94	192	3
HLD	95	0	5	192
BST	95	192	4
SI_	95	192	4	96	48	0
XHO	96	0	1	96
XHO	96	0	7	96
XHO	96	192	0	96
XHO	96	192	6	96
XST	96	336	0
SF_	96	336	0	96	144	4
XTP	96	336	6
BRK	97	288	2
BRK	97	288	6
STR	98	0	5
SI_	98	0	5	96	48	1
XST	98	96	4
SI_	98	96	4	96	48	0
TAP	98	192	7
TAP	98	288	6
TAP	98	336	6
TAP	99	0	0
STR	99	0	6
SI_	99	0	6	96	48	2
XST	99	96	7
SI_	99	96	7	96	48	3
TAP	99	192	4
TAP	99	288	4
TAP	99	336	4
TAP	100	0	1
TAP	100	0	4
BRK	100	96	2
BRK	100	96	3
BRK	100	144	2
BRK	100	144	3
BRK	100	240	0
BRK	100	240	1
BRK	100	336	2
BRK	100	336	7
TAP	101	48	0
TAP	101	48	1
TAP	101	144	2
TAP	101	192	3
XTP	101	240	0
XTP	101	288	0
STR	102	0	2
SI_	102	0	2	96	48	6
XST	102	96	3
SI_	102	96	3	96	48	7
TAP	102	192	0
TAP	102	288	1
TAP	102	336	1
STR	103	0	1
SI_	103	0	1	96	48	5
TAP	103	0	7
XST	103	96	0
SI_	103	96	0	96	48	4
TAP	103	192	3
TAP	103	288	6
TAP	103	336	6
TAP	104	0	6
TAP	104	0	7
XTP	104	96	0
XTP	104	96	5
XTP	104	144	0
XTP	104	144	5
XTP	104	240	6
XTP	104	240	7
XTP	104	336	4
XTP	104	336	5
XTP	105	48	2
XTP	105	48	6
TAP	105	144	7
TAP	105	192	7
TAP	105	240	0
BRK	105	288	1
BRK	105	288	5
TAP	106	0	6
TAP	106	48	6
XTP	106	96	4
TAP	106	144	4
TAP	106	192	3
TAP	106	240	3
XTP	106	288	1
XTP	106	336	1
TAP	107	0	3
TAP	107	48	3
XTP	107	96	4
TAP	107	144	4
TAP	107	192	6
TAP	107	240	6
BST	107	288	6
SI_	107	288	6	96	48	2
BST	107	288	7
SI_	107	288	7	96	48	3
BST	108	96	0
SI_	108	96	0	96	48	4
BST	108	96	1
SI_	108	96	1	96	48	5
BRK	108	288	6
BRK	108	288	7
XHO	109	0	7	72
XHO	109	72	6	72
XHO	109	144	5	72
XTP	109	216	4
XTP	109	288	3
XTP	109	288	6
XTP	110	0	1
TAP	110	48	1
XTP	110	96	4
XTP	110	144	4
TAP	110	192	2
TAP	110	192	3
TAP	110	240	2
TAP	110	240	3
BRK	110	288	1
BRK	110	288	4
XTP	111	0	6
TAP	111	48	6
XTP	111	96	3
XTP	111	144	3
TAP	111	192	4
TAP	111	192	5
TAP	111	240	4
TAP	111	240	5
BRK	111	288	3
BRK	111	288	6
XHO	112	0	0	96
XHO	112	0	7	96
XTP	112	144	1
XTP	112	144	6
XTP	112	240	2
XTP	112	240	3
XTP	112	336	4
XTP	112	336	6
XTP	113	48	2
XTP	113	48	5
BRK	113	144	3
BRK	113	144	4
BRK	113	192	3
BRK	113	192	4
BRK	113	288	0
BRK	113	288	7
BST	114	0	5
SI_	114	0	5	96	48	1
BST	114	96	4
SI_	114	96	4	96	48	0
BST	114	192	6
SI_	114	192	6	96	48	2
BST	114	288	7
SI_	114	288	7	96	48	3
BST	115	0	4
SI_	115	0	4	96	48	0
BRK	115	96	2
XTP	115	192	1
BRK	115	240	1
BRK	115	240	7
BRK	115	288	1
BRK	115	288	7
BST	116	0	2
SI_	116	0	2	96	48	6
BST	116	96	3
SI_	116	96	3	96	48	7
BST	116	192	1
SI_	116	192	1	96	48	5
BST	116	288	0
SI_	116	288	0	96	48	4
BST	117	0	3
SI_	117	0	3	96	48	7
BRK	117	96	5
XTP	117	192	6
BRK	117	240	0
BRK	117	240	6
BRK	117	288	0
BRK	117	288	6
BRK	118	0	4
BRK	118	0	5
TAP	118	48	4
TAP	118	48	5
BRK	118	96	3
BRK	118	96	6
TAP	118	144	3
TAP	118	144	6
BRK	118	192	2
BRK	118	192	7
TAP	118	240	2
TAP	118	240	7
BRK	118	288	0
BRK	118	288	1
BRK	119	0	2
BRK	119	0	3
TAP	119	48	2
TAP	119	48	3
BRK	119	96	1
BRK	119	96	4
TAP	119	144	1
TAP	119	144	4
BRK	119	192	0
BRK	119	192	5
TAP	119	240	0
TAP	119	240	5
BRK	119	288	6
BRK	119	288	7
TAP	120	0	0
TAP	120	48	0
TAP	120	96	6
TAP	120	144	6
TAP	120	192	7
TAP	120	216	1
TAP	120	240	7
TAP	120	264	1
TAP	120	288	7
TAP	120	312	1
XST	120	336	7
SI_	120	336	7	96	48	3
XST	121	48	2
SI_	121	48	2	96	48	5
SI_	121	48	2	96	48	7
BRK	121	240	0
BRK	121	240	4
BRK	121	288	0
BRK	121	288	4

T_REC_TAP	359
T_REC_BRK	83
T_REC_XTP	80
T_REC_HLD	40
T_REC_XHO	10
T_REC_STR	41
T_REC_BST	17
T_REC_XST	9
T_REC_TTP	22
T_REC_THO	1
T_REC_SLD	68
T_REC_ALL	730
T_NUM_TAP	511
T_NUM_BRK	100
T_NUM_HLD	51
T_NUM_SLD	68
T_NUM_ALL	730
T_JUDGE_TAP	611
T_JUDGE_HLD	210
T_JUDGE_SLD	68
T_JUDGE_ALL	889
TTM_EACHPAIRS	195
TTM_SCR_TAP	255500
TTM_SCR_BRK	260000
TTM_SCR_HLD	51000
TTM_SCR_SLD	102000
TTM_SCR_ALL	668500
TTM_SCR_S	638750
TTM_SCR_SS	658500
TTM_RAT_ACV	10151

