VERSION	0.00.00	1.03.00
FES_MODE	0
BPM_DEF	185.000	185.000	185.000	185.000
MET_DEF	4	4
RESOLUTION	384
CLK_DEF	384
COMPATIBLE_CODE	MA2

BPM	0	0	185.000
MET	0	0	4	4

HLD	2	0	2	384
HLD	3	0	3	384
HLD	4	0	4	384
TAP	5	0	5
TAP	5	192	4
TAP	5	192	5
HLD	6	0	6	384
HLD	7	0	7	384
HLD	8	0	0	384
STR	9	0	1
SCR	9	0	1	96	192	4
TAP	10	0	5
TAP	10	96	5
TAP	10	192	4
TAP	10	192	5
TAP	11	0	2
TAP	11	96	2
TAP	11	192	2
TAP	11	192	3
TAP	12	0	5
TAP	12	96	5
TAP	12	192	4
TAP	12	192	5
STR	13	0	3
SCL	13	0	3	96	192	0
STR	13	0	4
SCR	13	0	4	96	192	7
HLD	14	0	1	192
TAP	14	192	0
TAP	14	288	0
TAP	15	0	7
TAP	15	96	7
TAP	15	192	0
TAP	15	192	6
HLD	16	0	5	192
TAP	16	192	4
TAP	16	288	4
TAP	17	0	3
TAP	17	96	3
TAP	17	192	2
TAP	17	192	4
HLD	18	0	1	192
TAP	18	192	0
TAP	18	288	0
TAP	19	0	7
TAP	19	96	7
TAP	19	192	0
TAP	19	288	0
STR	20	0	0
SI_	20	0	0	96	192	3
STR	20	0	7
SI_	20	0	7	96	192	4
XTP	21	0	3
XTP	21	0	4
XTP	21	192	2
XTP	21	192	5
HLD	22	0	6	192
TAP	22	192	7
TAP	22	288	7
TAP	23	0	0
TAP	23	96	0
TAP	23	192	1
TAP	23	192	7
HLD	24	0	2	192
TAP	24	192	3
TAP	24	288	3
TAP	25	0	4
TAP	25	96	4
TAP	25	192	3
TAP	25	192	5
HLD	26	0	6	192
TAP	26	192	7
TAP	26	288	7
TAP	27	0	0
TAP	27	96	0
TAP	27	192	7
TAP	27	288	7
STR	28	0	0
SXL	28	0	0	96	480	3
STR	28	0	7
SXR	28	0	7	96	480	4
TAP	30	0	2
TAP	30	96	3
TAP	30	192	4
TAP	30	288	5
TAP	31	0	3
TAP	31	48	3
TAP	31	96	4
BRK	31	192	2
BRK	31	192	5
TTP	32	0	0	B	0	L1
TTP	32	0	1	B	0	L1
TTP	33	0	4	B	0	L1
TTP	33	0	5	B	0	L1
TTP	34	0	6	B	0	L1
TTP	34	0	7	B	0	L1
TTP	35	0	0	B	0	L1
TTP	35	0	1	B	0	L1
XST	36	0	3
SCL	36	0	3	96	168	0
XST	37	0	7
SCL	37	0	7	96	168	4
TAP	38	0	3
TAP	38	96	2
TAP	38	192	1
TAP	38	288	0
TAP	39	0	7
TAP	39	96	6
TAP	39	192	5
TAP	39	288	4
TAP	40	0	3
TAP	40	48	3
TAP	40	96	3
TAP	40	192	4
TAP	40	240	4
TAP	40	288	4
BRK	41	0	2
BRK	41	0	5
TAP	42	0	1
TAP	42	96	1
TAP	42	192	0
TAP	42	192	1
TAP	42	288	0
TAP	42	288	1
TAP	43	0	6
TAP	43	96	6
TAP	43	192	6
TAP	43	192	7
TAP	43	288	6
TAP	43	288	7
TAP	44	0	5
TAP	44	96	5
TAP	44	192	4
TAP	44	288	4
TAP	45	0	3
TAP	45	96	3
TAP	45	192	2
TAP	45	192	4
TAP	46	0	5
TAP	46	96	5
TAP	46	192	4
TAP	46	192	5
TAP	46	288	4
TAP	46	288	5
TAP	47	0	2
TAP	47	96	2
TAP	47	192	2
TAP	47	192	3
TAP	47	288	2
TAP	47	288	3
TAP	48	0	1
TAP	48	96	1
TAP	48	192	0
TAP	48	288	0
TAP	49	0	7
TAP	49	96	0
TAP	49	96	7
XTP	49	192	1
XTP	49	192	6
TAP	50	0	6
TAP	50	96	6
TAP	50	192	6
TAP	50	192	7
TAP	50	288	6
TAP	50	288	7
TAP	51	0	1
TAP	51	96	1
TAP	51	192	0
TAP	51	192	1
TAP	51	288	0
TAP	51	288	1
TAP	52	0	2
TAP	52	96	2
TAP	52	192	3
TAP	52	288	3
TAP	53	0	4
TAP	53	96	4
TAP	53	192	3
TAP	53	192	5
TAP	54	0	2
TAP	54	96	2
TAP	54	192	2
TAP	54	192	3
TAP	54	288	2
TAP	54	288	3
TAP	55	0	5
TAP	55	96	5
TAP	55	192	4
TAP	55	192	5
TAP	55	288	4
TAP	55	288	5
TAP	56	0	6
TAP	56	96	6
TAP	56	192	7
TAP	56	288	7
TAP	57	0	0
TAP	57	0	7
TAP	57	96	1
TAP	57	96	6
TAP	57	192	2
TAP	57	192	5
TAP	58	0	1
TAP	58	96	1
TAP	58	192	0
TAP	58	288	0
TAP	59	0	7
TAP	59	96	7
XTP	59	192	0
XTP	59	192	6
TAP	60	0	5
TAP	60	96	5
TAP	60	192	4
TAP	60	288	4
TAP	61	0	3
TAP	61	96	3
XTP	61	192	3
XTP	61	192	4
TAP	62	0	2
TAP	62	96	2
TAP	62	192	3
TAP	62	288	3
TAP	63	0	4
TAP	63	96	4
XTP	63	192	3
XTP	63	192	5
TAP	64	0	6
TAP	64	96	6
TAP	64	192	7
TAP	64	288	7
TAP	65	0	0
TAP	65	96	0
TAP	65	96	7
XTP	65	192	1
XTP	65	192	6
TAP	66	0	5
TAP	66	96	5
TAP	66	192	4
TAP	66	192	5
TAP	67	0	2
TAP	67	96	2
TAP	67	192	2
TAP	67	192	3
TAP	68	0	1
TAP	68	96	1
TAP	68	192	0
TAP	68	192	1
XTP	69	0	7
XTP	69	96	0
XTP	69	192	1
XTP	69	192	6
STR	70	0	5
SCR	70	0	5	96	192	0
TAP	71	0	1
TAP	71	96	1
TAP	71	192	0
TAP	71	192	1
STR	72	0	2
SCL	72	0	2	96	192	7
TAP	73	0	6
TAP	73	96	6
TAP	73	192	6
TAP	73	192	7
STR	74	0	5
SCR	74	0	5	96	192	0
TAP	75	0	1
TAP	75	96	1
TAP	75	192	2
TAP	75	288	2
STR	76	0	3
SXR	76	0	3	96	480	0
STR	76	0	4
SXL	76	0	4	96	480	7
TAP	78	0	0
TAP	78	96	0
TAP	78	192	7
TAP	78	288	7
HLD	79	0	1	192
HLD	79	0	6	192
TTP	80	0	4	B	0	L1
TTP	80	0	5	B	0	L1
TTP	81	0	0	B	0	L1
TTP	81	0	1	B	0	L1
TTP	82	0	2	B	0	L1
TTP	82	0	3	B	0	L1
TTP	83	0	4	B	0	L1
TTP	83	0	5	B	0	L1
XST	84	0	7
SCL	84	0	7	96	168	4
XST	85	0	3
SCL	85	0	3	96	168	0
TAP	86	0	7
TAP	86	96	6
TAP	86	192	5
TAP	86	288	4
TAP	87	0	3
TAP	87	96	2
TAP	87	192	1
TAP	87	288	0
TAP	88	0	7
TAP	88	48	7
TAP	88	96	7
TAP	88	192	0
TAP	88	240	0
TAP	88	288	0
BRK	89	0	1
BRK	89	0	6
STR	90	0	5
SCR	90	0	5	96	192	0
STR	91	0	1
SUR	91	0	1	96	192	5
STR	92	0	6
SUL	92	0	6	96	192	2
TAP	93	0	1
TAP	93	192	0
TAP	93	192	1
STR	94	0	2
SCL	94	0	2	96	192	7
STR	95	0	6
SCL	95	0	6	96	192	3
XTP	96	0	2
XTP	96	192	2
XTP	96	192	3
XTP	96	336	2
XTP	96	336	3
TAP	97	288	3
TAP	97	288	4
TAP	98	0	5
TAP	98	96	4
TAP	98	96	5
TAP	98	192	5
TAP	98	288	4
TAP	98	288	5
TAP	99	0	2
TAP	99	96	2
TAP	99	96	3
TAP	99	192	2
TAP	99	288	2
TAP	99	288	3
TAP	100	0	1
TAP	100	96	1
TAP	100	192	0
TAP	100	288	0
TAP	101	0	7
TAP	101	96	7
TAP	101	192	0
TAP	101	192	6
TAP	102	0	5
TAP	102	96	4
TAP	102	96	5
TAP	102	192	5
TAP	102	288	4
TAP	102	288	5
TAP	103	0	2
TAP	103	96	2
TAP	103	96	3
TAP	103	192	2
TAP	103	288	2
TAP	103	288	3
TAP	104	0	1
TAP	104	96	1
TAP	104	192	0
TAP	104	288	0
TAP	105	0	7
TAP	105	96	0
TAP	105	96	7
TAP	105	192	1
TAP	105	192	6
TAP	106	0	5
TAP	106	48	5
TAP	106	96	5
TAP	106	192	4
TAP	106	192	5
TAP	106	288	3
TAP	106	288	6
TAP	107	0	2
TAP	107	48	2
TAP	107	96	2
TAP	107	192	2
TAP	107	192	3
TAP	107	288	1
TAP	107	288	4
TAP	108	0	0
TAP	108	48	0
TAP	108	96	0
TAP	108	192	7
TAP	108	240	7
TAP	108	288	7
XTP	109	0	0
XTP	109	0	7
XTP	109	96	0
XTP	109	96	7
XTP	109	192	1
XTP	109	192	6
TAP	110	0	2
TAP	110	48	2
TAP	110	96	2
TAP	110	192	2
TAP	110	192	3
TAP	110	288	1
TAP	110	288	4
TAP	111	0	5
TAP	111	48	5
TAP	111	96	5
TAP	111	192	4
TAP	111	192	5
TAP	111	288	3
TAP	111	288	6
HLD	112	0	7	144
TAP	112	144	0
XTP	112	240	0
XTP	112	240	7
XST	112	336	0
SCR	112	336	0	96	192	3
XST	112	336	7
SCL	112	336	7	96	192	4
TAP	114	0	5
TAP	114	96	5
TAP	114	192	4
TAP	114	288	4
TAP	115	0	2
TAP	115	0	3
TAP	115	96	2
TAP	115	96	3
XTP	115	192	1
XTP	115	192	4
TAP	116	0	1
TAP	116	96	1
TAP	116	192	0
TAP	116	288	0
TAP	117	0	6
TAP	117	0	7
TAP	117	96	6
TAP	117	96	7
XTP	117	192	0
XTP	117	192	5
TAP	118	0	6
TAP	118	96	6
TAP	118	192	7
TAP	118	288	7
TAP	119	0	0
TAP	119	0	1
TAP	119	96	0
TAP	119	96	1
XTP	119	192	2
XTP	119	192	7
TAP	120	0	2
TAP	120	96	2
TAP	120	192	3
TAP	120	288	3
XTP	121	0	3
XTP	121	0	4
XTP	121	96	2
XTP	121	96	5
XTP	121	192	1
XTP	121	192	6
XTP	121	288	0
XTP	121	288	7

T_REC_TAP	329
T_REC_BRK	6
T_REC_XTP	45
T_REC_HLD	15
T_REC_XHO	0
T_REC_STR	17
T_REC_BST	0
T_REC_XST	6
T_REC_TTP	16
T_REC_THO	0
T_REC_SLD	23
T_REC_ALL	457
T_NUM_TAP	413
T_NUM_BRK	6
T_NUM_HLD	15
T_NUM_SLD	23
T_NUM_ALL	457
T_JUDGE_TAP	419
T_JUDGE_HLD	83
T_JUDGE_SLD	23
T_JUDGE_ALL	525
TTM_EACHPAIRS	93
TTM_SCR_TAP	206500
TTM_SCR_BRK	15600
TTM_SCR_HLD	15000
TTM_SCR_SLD	34500
TTM_SCR_ALL	271600
TTM_SCR_S	262900
TTM_SCR_SS	271000
TTM_RAT_ACV	10022

