VERSION	0.00.00	1.03.00
FES_MODE	0
BPM_DEF	185.000	185.000	185.000	185.000
MET_DEF	4	4
RESOLUTION	384
CLK_DEF	384
COMPATIBLE_CODE	MA2

BPM	0	0	185.000
MET	0	0	4	4

TAP	10	0	0
TAP	11	0	0
TAP	12	0	7
XTP	13	0	7
TAP	14	0	0
TAP	15	0	0
TAP	16	0	1
TAP	17	0	1
TAP	18	0	2
TAP	19	0	2
TAP	20	0	3
TAP	20	0	4
TAP	21	0	3
TAP	21	0	4
TAP	22	0	4
TAP	23	0	4
TAP	24	0	5
TAP	25	0	5
TAP	26	0	6
TAP	27	0	6
TAP	28	0	0
TAP	28	0	7
XTP	29	0	0
XTP	29	0	7
HLD	30	0	0	384
HLD	30	0	7	384
TTP	32	0	7	B	0	L1
TTP	33	0	0	B	0	L1
TTP	34	0	6	B	0	L1
TTP	35	0	1	B	0	L1
TTP	36	0	5	B	0	L1
TTP	37	0	2	B	0	L1
TTP	38	0	4	B	0	L1
TTP	39	0	3	B	0	L1
THO	40	0	0	384	C	1	L1
XTP	42	0	7
TAP	42	192	7
TAP	43	0	7
TAP	44	0	6
TAP	44	192	6
TAP	45	0	6
TAP	46	0	5
TAP	46	192	5
TAP	47	0	5
TAP	48	0	4
TAP	48	192	4
TAP	49	0	3
TAP	49	0	4
TAP	50	0	3
TAP	50	192	3
TAP	51	0	3
TAP	52	0	2
TAP	52	192	2
TAP	53	0	2
TAP	54	0	1
TAP	54	192	1
TAP	55	0	1
TAP	56	0	0
TAP	56	192	0
XTP	57	0	0
XTP	57	0	7
TAP	58	0	0
TAP	58	192	0
TAP	59	0	1
TAP	59	192	1
TAP	60	0	2
TAP	60	192	2
TAP	61	0	3
TAP	61	0	4
TAP	62	0	4
TAP	62	192	4
TAP	63	0	5
TAP	63	192	5
TAP	64	0	6
TAP	64	192	6
XTP	65	0	0
XTP	65	0	7
HLD	66	0	6	384
HLD	66	0	7	384
HLD	68	0	0	384
HLD	68	0	1	384
STR	70	0	7
SI_	70	0	7	96	480	4
TAP	73	0	0
STR	74	0	0
SI_	74	0	0	96	480	3
TAP	77	0	7
HLD	78	0	0	384
HLD	78	0	7	384
TTP	80	0	0	B	0	L1
TTP	80	0	7	B	0	L1
TTP	81	0	1	B	0	L1
TTP	81	0	6	B	0	L1
TTP	82	0	2	B	0	L1
TTP	82	0	5	B	0	L1
TTP	84	0	3	B	0	L1
TTP	84	0	4	B	0	L1
TTP	85	0	2	B	0	L1
TTP	85	0	5	B	0	L1
TTP	86	0	1	B	0	L1
TTP	86	0	6	B	0	L1
TTP	87	0	0	B	0	L1
TTP	87	0	7	B	0	L1
THO	88	0	0	384	C	0	L1
TAP	90	0	0
TAP	91	0	0
TAP	92	0	0
TAP	92	0	1
TAP	93	0	0
TAP	93	0	1
TAP	94	0	7
TAP	95	0	7
XTP	96	0	0
XTP	96	0	7
XTP	96	192	0
XTP	96	192	7
XTP	97	0	0
XTP	97	0	7
TAP	98	0	0
TAP	98	192	0
TAP	99	0	1
TAP	99	96	1
TAP	99	192	1
TAP	100	0	2
TAP	100	192	2
TAP	101	0	3
TAP	101	96	3
TAP	101	192	3
TAP	101	192	4
TAP	102	0	4
TAP	102	192	4
TAP	103	0	5
TAP	103	96	5
TAP	103	192	5
TAP	104	0	6
TAP	104	192	6
XTP	105	0	6
XTP	105	0	7
TAP	106	0	7
TAP	106	96	7
TAP	106	192	7
TAP	107	0	6
TAP	107	96	6
TAP	107	192	6
TAP	108	0	5
TAP	108	96	5
TAP	108	192	5
TAP	109	0	4
TAP	109	96	4
TAP	109	192	3
TAP	109	192	4
TAP	110	0	3
TAP	110	96	3
TAP	110	192	3
TAP	111	0	2
TAP	111	96	2
TAP	111	192	2
TAP	112	0	1
TAP	112	96	1
TAP	112	192	1
XTP	113	0	0
XTP	113	0	7
XTP	113	192	0
XTP	113	192	7
BRK	114	0	0
TAP	114	96	0
TAP	114	192	1
TAP	114	288	1
TAP	115	0	2
TAP	115	192	2
TAP	115	192	3
TAP	116	0	4
TAP	116	96	4
TAP	116	192	5
TAP	116	288	5
TAP	117	0	6
TAP	117	192	6
TAP	117	192	7
TAP	118	0	7
TAP	118	96	7
TAP	118	192	6
TAP	118	288	6
TAP	119	0	5
TAP	119	96	5
TAP	119	192	4
TAP	119	192	5
TAP	120	0	3
TAP	120	96	3
TAP	120	192	2
TAP	120	288	2
TAP	121	0	1
TAP	121	96	1
XTP	121	192	0
XTP	121	192	7
BRK	121	288	0
BRK	121	288	7

T_REC_TAP	135
T_REC_BRK	3
T_REC_XTP	22
T_REC_HLD	8
T_REC_XHO	0
T_REC_STR	2
T_REC_BST	0
T_REC_XST	0
T_REC_TTP	22
T_REC_THO	2
T_REC_SLD	2
T_REC_ALL	196
T_NUM_TAP	181
T_NUM_BRK	3
T_NUM_HLD	10
T_NUM_SLD	2
T_NUM_ALL	196
T_JUDGE_TAP	184
T_JUDGE_HLD	80
T_JUDGE_SLD	2
T_JUDGE_ALL	266
TTM_EACHPAIRS	27
TTM_SCR_TAP	90500
TTM_SCR_BRK	7800
TTM_SCR_HLD	10000
TTM_SCR_SLD	3000
TTM_SCR_ALL	111300
TTM_SCR_S	107700
TTM_SCR_SS	111000
TTM_RAT_ACV	10027

